Доктор Стрэндж

Лицензия

Добыча

Дубляж

Дом дракона

1 сезон

Тор

Дубляж

В эфире

Дубляж

Там, где раки поют

MVO

Властелин колец

1 сезон

GLOBAL

pack

Рекомендуем

30

Пиратка

ВАЖНО

ВАЖНО

Ghostwire

Пиратка

jed

RePack

nioh2

RePack

RDR2

RePack

NEED FOR SPEED™ PAYBACK

RePack

скачать торрент

Кинопоиск HD

Острые козырьки 6 сезон

6 сезон

FAR CRY 6

RePack

скачать торрент

Лицензия

скачать торрент

MVO

1

1 сезон

скачать торрент

1 сезон

скачать торрент

Лицензия

  

День денег (Алексей Рудаков) [2006 г., комедия, криминал, DVD5]

Смотреть онлайн | Скачать   

01-11-2014 17:26 День денег Скачать торрент  

День денег
Год выпуска: 2006
Страна: Россия
Жанр: комедия, криминал
Продолжительность: 107 мин. / 01:47

Режиссер: Алексей Рудаков
Сценарий: Алексей Рудаков

IMDB


В ролях: Михаил Полицеймако, Евгений Стычкин, Роман Мадянов, Александр Баширов, Борис Смолкин, Всеволод Шиловский, Алиса Гребенщикова, Валерий Долженков, Татьяна Маслова, Александр Карамнов

Описание: Три перца — Змей, Парфен и Писатель — находят 33 тонны зелени. Вокруг этого все и заруливается. Баксы эти были местного авторитета Зубра. Зубр, как очнулся с бодуна в обнимку с медведем, недостачу обнаружил, психанул не по-детски: «Не найдете — всех зарою». И понеслось, и завертелось!Друзьям от шальных денег совсем башню снесло: то бухают от счастья, то морду друг другу бьют, то плачут, то смеются, то по городу бегают, ищут, кому деньги нужнее. А за ними вдогонку двое придурков-мафиози, подручных Зубра. Те направо, эти налево, те во двор, эти на улицу. А за ними жены и проститутки, рэперы и бомжи, дворничихи и бульдозеристы, девушки и старушки, дети и мамаши, убийцы и антиквары, больные и совсем больные. Деньги порхают, пули свистят, старушки летают. Крик, ор, пальба, в общем, кино и немцы.Вот такой безбашенный день денег случился. А чем закончился? Как всегда: деньги были, деньги будут, а сейчас денег нет.

Качество: DVD5
Формат: DVD Video
Видео кодек: MPEG2
Аудио кодек: AC3
Видео: MPEG 2, 720x576 (2.35:1), 25.000 fps, 9 000 Kbps (0.419 bit/pixel)
Аудио: AC-3, 48.0 KHz, 6 ch, 448 Kbps, CBR
Формат : MPEG-PS
Размер файла : 1024 Мбайт
Продолжительность : 29 м.
Режим общего битрейта : Переменный
Общий поток : 4894 Кбит/сек

Видео
Идентификатор : 224 (0xE0)
Формат : MPEG Video
Версия формата : Version 2
Профиль формата : [email protected]
Параметр BVOP формата : Да
Параметр матрицы формата : По умолчанию
Параметр GOP формата : M=2, N=15
Продолжительность : 29 м.
Вид битрейта : Переменный
Битрейт : 4349 Кбит/сек
Максимальный битрейт : 9000 Кбит/сек
Ширина : 720 пикселей
Высота : 576 пикселей
Соотношение сторон : 2,40:1
Частота кадров : 25,000 кадров/сек
Стандарт вещания : PAL
Цветовое пространство : YUV
Субдискретизация насыщенности : 4:2:0
Битовая глубина : 8 бит
Тип развёртки : Чересстрочная
Порядок развёртки : Верхнее поле первое
Метод сжатия : С потерями
Бит/(Пиксели*Кадры) : 0.419
Временной код первого кадра : 00:00:00:00
Оригинал временного кода : Group of pictures header
Размер потока : 910 Мбайт (89%)
Основные цвета : BT.601 PAL
Характеристики трансфера : BT.470 System B, BT.470 System G
Коэффициенты матрицы : BT.601

Аудио
Идентификатор : 189 (0xBD)-128 (0x80)
Формат : AC-3
Формат/Информация : Audio Coding 3
Расширение режима : CM (complete main)
Параметр Endianness формата : Big
Режим смешивания : DVD-Video
Продолжительность : 29 м.
Вид битрейта : Постоянный
Битрейт : 448 Кбит/сек
Каналы : 6 каналов
Расположение каналов : Front: L C R, Side: L R, LFE
Частота : 48,0 КГц
Битовая глубина : 16 бит
Метод сжатия : С потерями
Задержка видео : 240 мс.
Размер потока : 93,7 Мбайт (9%)

Текст
Идентификатор : 189 (0xBD)-32 (0x20)
Формат : RLE
Формат/Информация : Run-length encoding
Режим смешивания : DVD-Video
скриншот   скриншот   скриншот   скриншот   скриншот  



Скачать
Чтобы иметь возможность скачивать с Торрент Трекера, нужно Зарегистрироваться

Как скачивать  ·  Рейтинг и ограничения




Последний раз редактировалось: TeSo33 (2014-11-05 13:25), всего редактировалось 1 раз

28-11-2019 20:33  


Отключить вcю реклaмy на сайте, в т.ч. и в плеере онлайн просмотра!

05-11-2014 16:05 День денег Скачать торрент  

Вот так, примерно надо оформлять раздачу



    Дорогой пользователь! Огромная просьба, поблагодарите релизера, оцените раздачу и оставьте свои комментарий, если Вы скачали День денег через торрент бесплатно!!
    Комментировать посты могут только пользователи прошедшие не сложную регистрацию
    Показать сообщения:    


    День денег через торрент
    Скачать бесплатно День денег
    День денег скачать торрент
    День денег смотреть онлайн
    Cкачать фильм День денег бесплатно
    День денег скачать торрент в хорошем качестве
    День денег смотреть онлайн бесплатно в хорошем качестве
    Вы не можете начинать темы
    Вы не можете отвечать на сообщения
    Вы не можете редактировать свои сообщения
    Вы не можете удалять свои сообщения
    Вы не можете голосовать в опросах
    Вы не можете прикреплять файлы к сообщениям
    Вы не можете скачивать файлы
    День денег [2006 г., комедия, криминал, DVD5] смотреть онлайн, скачать торрент picoco.icu