Ссылка на приватное зеркало нашего сайта всего за 1$. Внимание количество ограничено!!!

2 сезон

iTunes

1 сезон

1

2 сезон

2 сезон

iTunes

1 сезон

RePack

30

Новинка

ВАЖНО

ИГРА 18+

pack

RePack

MK11
pack

Забери бонус

RePack

jed

!!Акция!!

Alien_Rage

RePack

fifa19

RePack

Assassins Creed: Odyssey

RePack

NEED FOR SPEED™ PAYBACK

4 сезон

9 сезон

Бесстыжие 9 сезон

Все сериалы

все сериалы на PB.wtf

RePack

FAR CRY 5
  

Геракл / Hercules (Бретт Рэтнер) [2014, США, Боевик, приключения, фэнтези, BDRip 720p, Дублированный [iTunes] [Theatrical Cut] pb.wtf

Геракл через торрент pb.wtf

Раздают: 2 [ 0 KB/s ]
Размер: 3.47 GB | Добавлен: 6 лет назад | Торрент скачан:437 раз
Скачать  

25-11-2014 16:01 Геракл Скачать торрент  

Геракл / Hercules«Множество врагов. Двенадцать подвигов. Один герой»
Год выпуска: 2014
Выпущено:: США
Жанр: Боевик, приключения, фэнтези
Длительность: 01:38:05
Перевод: Дублированный [iTunes]
Субтитры: Русские
Режиссер:Бретт Рэтнер
В ролях:

Дуэйн Джонсон, Аксель Хенни, Иэн МакШейн, Джон Хёрт, Руфус Сьюэлл, Ингрид Больсё Бердаль, Рис Ричи, Джозеф Файнс, Тобиас Зантельман, Питер Муллан
Описание:
Более тысячи лет назад измученная душа скиталась по Земле, полубог, получеловек — Геракл — могучий сын царя богов Зевса, совершив все 12 подвигов, потерял семью и теперь находит утешение только в кровавых битвах. За эти годы он собирает вокруг себя шестерых таких же потерянных воинов, единственным смыслом жизни для которых стали сражения и присутствие смертельной опасности. Эти мужчины и женщина никогда не задают вопрос, где, почему или с кем они идут сражаться; только, сколько им заплатят. Зная это, фракийский царь Котис нанимает этих воинов, чтобы они обучили его солдат и сделали из них самую сильную и великую армию всех времен.Бюджет: $100 000 000
Сборы в США: $72 688 614
Сборы в мире: + $169 400 000 = $242 088 614
Сборы в России: $22 680 304

Мировая премьера: 23 июля 2014
Премьера (РФ): 24 июля 2014, «Централ Партнершип»

Релиз на DVD: 1 декабря 2014, «Новый Диск»
Релиз на Blu-Ray: 1 декабря 2014, «Новый Диск»
Рейтинг:

Качество: BDRip 720p
Формат: MKV
Видео кодек: AVC
Аудио кодек:Русский-AC3
Видео: 1280x534 (2.35:1), 4 700 kbps, 23,976 fps, 0.287
Аудио#1: Русский / 6 ch / 48 kHz / 384 kbps / 16 bit
Дополнительно: Сохранены оригинальные чаптеры как на Blu-Ray
Автор рипа: VIP101











General
Complete name : Геракл.2014.BDRip.720p.VIP101.mkv
Format : Matroska
File size : 3.47 GiB
Duration : 1h 38mn
Overall bit rate : 5 059 Kbps
Encoded date : UTC 2014-11-17 06:02:44
Writing application : mkvmerge v7.3.0 ('Nouages') 64bit built on Oct 22 2014 18:53:34
Writing library : libebml v1.3.0 + libmatroska v1.4.1

Video
ID : 1
Format : AVC
Format/Info : Advanced Video Codec
Format profile : High@L4.1
Format settings, CABAC : Yes
Format settings, ReFrames : 5 frames
Format settings, GOP : M=4, N=16
Muxing mode : Container profile=Unknown@4.1
Codec ID : V_MPEG4/ISO/AVC
Duration : 1h 38mn
Bit rate : 4 700 Kbps
Width : 1 280 pixels
Height : 534 pixels
Display aspect ratio : 2.35:1
Frame rate : 23.976 fps
Color space : YUV
Chroma subsampling : 4:2:0
Bit depth : 8 bits
Scan type : Progressive
Bits/(Pixel*Frame) : 0.287
Stream size : 3.13 GiB (90%)
Writing library : x264 core 119 r2106 07efeb4
Encoding settings : cabac=1 / ref=5 / deblock=1:-3:-3 / analyse=0x3:0x133 / me=umh / subme=9 / psy=1 / psy_rd=1.00:0.10 / mixed_ref=1 / me_range=32 / chroma_me=1 / trellis=1 / 8x8dct=1 / cqm=0 / deadzone=21,11 / fast_pskip=0 / chroma_qp_offset=-3 / threads=12 / sliced_threads=0 / nr=0 / decimate=1 / interlaced=0 / bluray_compat=0 / constrained_intra=0 / bframes=3 / b_pyramid=2 / b_adapt=2 / b_bias=0 / direct=3 / weightb=1 / open_gop=0 / weightp=2 / keyint=240 / keyint_min=23 / scenecut=40 / intra_refresh=0 / rc_lookahead=50 / rc=2pass / mbtree=1 / bitrate=4700 / ratetol=1.0 / qcomp=0.60 / qpmin=0 / qpmax=69 / qpstep=4 / cplxblur=20.0 / qblur=0.5 / ip_ratio=1.40 / aq=1:1.00

Audio
ID : 2
Format : AC-3
Format/Info : Audio Coding 3
Mode extension : CM (complete main)
Codec ID : A_AC3
Duration : 1h 38mn
Bit rate mode : Constant
Bit rate : 384 Kbps
Channel(s) : 6 channels
Channel positions : Front: L C R, Side: L R, LFE
Sampling rate : 48.0 KHz
Bit depth : 16 bits
Stream size : 269 MiB (8%)

Text
ID : 3
Format : UTF-8
Codec ID : S_TEXT/UTF8
Codec ID/Info : UTF-8 Plain Text

Приятного просмотра! Не забывайте говорить спасибо! pb.wtf



Скачать Геракл через торрент http://savepic.biz/img/2014-11/17/8m0jzdxh3cdqg4ortkisdea0j.png Скачать фильм Геракл через торрент бесплантно в хорошем качестве Описание: Более тысячи лет назад измученная душа скиталась по Земле, полубог, получеловек — Геракл — могучий сын царя богов Зевса, совершив ... 9.8 10 26
Info! Золотая раздача, скачанное не засчитывается.
Торрент: Зарегистрирован [2014-11-25 18:30] · скачан: 437 раз
Статус: √ проверено
Размер: 3.47 GB
Как cкачать? Как скачать Геракл через торрент | qTorrent

% Раздел Тема Автор DL S | L
Фильмы [HD 720p, 1080p] (Хороший звук DUB, MVO) [ 3.87 GB ] Геракл / Hercules [2014 BDRip 1080p-HEVC 10bit + VO] [Расширенная версия / Extended Cut] ADVOKAT69 Скачать
1 | 0
Ultra HD (UHD: 2K, 4K, 8K) — видео сверхвысокой чёткости [ 56.12 GB ] Геракл: Начало легенды / The Legend of Hercules [2014 UHD BDRemux 2160p] - [] sheker187 Скачать
1 | 0
Фильмы 2014 [DVDrip, WEB-DLRip, HDrip] [ 2.18 GB ] Геракл: Начало легенды / The Legend of Hercules [2014 Болгария HDRip-AVC] - [] От R.G. PiratFilms White Smoke Скачать
1 | 0
Фильмы с авторской озвучкой [ 1.46 GB ] Геракл / Hercules [2014 BDRip] [Расширенная версия] [AVO] killermax2013 Скачать
1 | 0
Фильмы [HD 720p, 1080p] (Хороший звук DUB, MVO) [ 11.02 GB ] Геракл / Hercules [2014 BDRip 1080p Dub ] Seedtank Скачать
1 | 0
Фильмы 2014 [DVDrip, WEB-DLRip, HDrip] [ 2.19 GB ] Геракл / Hercules [2014 BDRip - [ ] [Theatrical Cut] Ворон Скачать
3 | 0
Фильмы (DVD фильмы) [ 7.15 GB ] Геракл / Hercules [2014 DVD9] R5 voovaz Скачать
1 | 0


Последний раз редактировалось: _Fenixx_ни мужик ни баба (2014-11-25 20:50), всего редактировалось 8 раз(а)

28-11-2019 20:33  

Отключить всю рекламу на сайте

25-11-2014 16:23 Геракл Скачать торрент  

качество супер, а можно Расширенную версию в таком же качестве ?pb.wtf



25-11-2014 16:29 Геракл Скачать торрент  

БАНДИТ писал(а):

качество супер, а можно Расширенную версию в таком же качестве ?

Театральная версия вышла пока только в HDRip! Как только появится BDRip 720p или 1080p я тут же выложу!pb.wtf



25-11-2014 16:40 Геракл Скачать торрент  

БАНДИТ, Геракл / Hercules pb.wtf



25-11-2014 18:33 Геракл Скачать торрент  

Торрент был обновлен! Причина: закрытый DHT! Приношу свои извинения! Просьба переподключится к раздаче!pb.wtf



25-11-2014 18:44 Геракл Скачать торрент  

в разделе (HD 720p, 1080p) разрешены DHT раздачи ?pb.wtf



25-11-2014 23:25 Геракл Скачать торрент  

А ничего так фильм.pb.wtf



    Дорогой пользователь! Огромная просьба, поблагодарите релизера, оцените раздачу и оставьте свои комментарий, если Вы скачали Геракл через торрент бесплатно! Внесите свою лепту в развитие PiratBit!
    Комментировать посты могут только пользователи прошедшие не сложную регистрацию
    Показать сообщения:    

    Геракл через торрент
    Скачать бесплатно Геракл
    Геракл скачать торрент
    Геракл смотреть онлайн
    Cкачать фильм Геракл бесплатно
    Геракл скачать торрент в хорошем качестве
    Геракл смотреть онлайн бесплатно в хорошем качестве


    Вы не можете начинать темы
    Вы не можете отвечать на сообщения
    Вы не можете редактировать свои сообщения
    Вы не можете удалять свои сообщения
    Вы не можете голосовать в опросах
    Вы не можете прикреплять файлы к сообщениям
    Вы можете скачивать файлы