Лицензия

MVO

1

1 сезон

Лицензия

Лицензия

13

MVO

1 сезон

Deluxe Edition

pack

Рекомендуем

30

Repack

ВАЖНО

ВАЖНО

Ghostwire

RePack

jed

RePack

fifa19

RePack

RDR2

RePack

NEED FOR SPEED™ PAYBACK

RePack

Кинопоиск HD

 Острые козырьки 6 сезон

6 сезон

FAR CRY 6

RePack

Лицензия

MVO

1

1 сезон

1 сезон

Лицензия

  

Ruslan Provodnikov vs Jose Luis Castillo & undercard / Руслан Проводников - Хосе Луиса Кас [28.11.2014, Бокс, DVB, RU]

Ruslan Provodnikov vs Jose Luis Castillo & undercard через торрент pb.wtf

Размер: 8.13 GB | Добавлен: 7 лет 10 мес. назад | Торрент скачан:34 раза
Смотреть онлайн Ruslan Provodnikov vs Jose Luis Castillo & undercard | Скачать   

29-11-2014 00:54 Ruslan Provodnikov vs Jose Luis Castillo & undercard Скачать торрент  

Ruslan Provodnikov vs Jose Luis Castillo & undercard / Руслан Проводников - Хосе Луиса Кас
Год выпуска: 2014

Вид спорта: Бокс

Продолжительность: 04:25.40

Комментарий: Профессиональный многоголосый

Язык комментариев: Русский

Комментаторы: Андрей Шкаликов, Борис Скрипко, Григорий Дрозд и Григорий Стангрит.

Описание: 28 ноября в Москве прошел вечер бокса, главным событием которого стал поединок между россиянином Русланом Проводниковым и мексиканцем Хосе Луисом Кастильо. Также в рамках боксёрского вечера выступят Рахим Чахкиев, Егор Мехонцев и голливудская звезда Микки Рурк.

Качество: DVB

Формат: MKV

Видео кодек: MPEG2

Аудио кодек: MP2

Видео: MPEG2 Video 720x576 (4:3) 25fps 4103 Kbps

Аудио: MP2 48000Hz stereo 192kbps

Автор рипа/записи: dean10












General
Unique ID : 221842813699371678949845767015682561858 (0xA6E55F2D4E7D7700D27AB9F4D0F45742)
Complete name : C:UsersGuard.buhnew-lVideosTorrentRuslan Provodnikov vs Jose Luis Castillo & undercard_28.11.2014_DVB_RU.-dean10.mkv
Format : Matroska
Format version : Version 2
File size : 8.13 GiB
Duration : 4h 25mn
Overall bit rate mode : Variable
Overall bit rate : 4 383 Kbps
Writing application : Lavf54.63.104
Writing library : Lavf54.63.104

Video
ID : 1
Format : MPEG Video
Format version : Version 2
Format profile : [email protected]
Format settings, BVOP : No
Format settings, Matrix : Custom
Format settings, picture struc : Frame
Codec ID : V_MPEG2
Codec ID/Info : MPEG 1 or 2 Video
Duration : 4h 25mn
Bit rate mode : Variable
Bit rate : 4 103 Kbps
Maximum bit rate : 15.0 Mbps
Width : 720 pixels
Height : 576 pixels
Display aspect ratio : 4:3
Original display aspect ratio : 4:3
Frame rate mode : Constant
Frame rate : 25.000 fps
Standard : PAL
Color space : YUV
Chroma subsampling : 4:2:0
Bit depth : 8 bits
Scan type : Interlaced
Scan order : Top Field First
Compression mode : Lossy
Bits/(Pixel*Frame) : 0.396
Stream size : 7.61 GiB (94%)
Default : No
Forced : No

Audio
ID : 2
Format : MPEG Audio
Format version : Version 1
Format profile : Layer 2
Codec ID : A_MPEG/L2
Codec ID/Hint : MP2
Duration : 4h 25mn
Bit rate mode : Constant
Bit rate : 192 Kbps
Channel(s) : 2 channels
Sampling rate : 48.0 KHz
Compression mode : Lossy
Delay relative to video : -1mn 5s
Stream size : 365 MiB (4%)
Language : Russian
Default : Yes
Forced : No

1. супертяжелый вес - Sergey Kuzmin debut vs Nicolas Buule 3(3)-0-0

2. полутяжелый вес - Dmitry Bivol debut vs Jorge Rodriguez Olivera 25(12)-10(7)-0

3. супер-полулегкий вес - Andrey Klimov 18(9)-1-0 vs Gabino Cota 16(14)-2(1)-1 - WBO Inter-Continental супер-полулегкий вес титул

4. полутяжелый вес - Egor Mekhontsev 6(6)-0-0 vs Joey Vegas 17(10)-9(4)-1

5. легкий вес - Eduard Troyanovsky 19(16)-0-0 vs Jose Agustin Feria 16(10)-1(1)-1 - WBA Inter-Continental легкий вес титул

6. тяжелый вес - Dmitry Kudryashov 15(15)-0-0 vs Juan Carlos Gomez 55(40)-3(2)-0 - WBA International тяжелый вес титул

7. тяжелый вес - Rakhim Chakhkiev 20(15)-1(1)-0 vs Jackson Junior

8. Mickey Rourke vs Elliot Seymour

9. полусредний вес - Ruslan Provodnikov 23(16)-3-0 vs Jose Luis Castillo 66(57)-12(7)-1

скриншот   скриншот   скриншот   скриншот   скриншот   скриншот  



Скачать Ruslan Provodnikov vs Jose Luis Castillo & undercard через торрент https://pic1.kartinco.top/images/81/oylbg.jpg Скачать, смотреть онлайн Ruslan Provodnikov vs Jose Luis Castillo & undercard бесплантно в хорошем качестве Описание: 28 ноября в Москве прошел вечер бокса, главным событием которого стал поединок между россиянином Русланом Проводниковым и ... 10 10 5
Info! Золотая раздача, скачанное не засчитывается.
Торрент: Зарегистрирован [2014-11-29 00:54] · скачан: 34 раз
Статус: √ проверено
Размер: 8.13 GB
Как cкачать? Как скачать Ruslan Provodnikov vs Jose Luis Castillo & undercard через торрент | UTorrent

28-11-2019 20:33  

Отключить вcю реклaмy на сайте

29-11-2014 01:35 Ruslan Provodnikov vs Jose Luis Castillo & undercard Скачать торрент  

Проводников красавчик, так держать.



29-11-2014 04:42 Ruslan Provodnikov vs Jose Luis Castillo & undercard Скачать торрент  

Руслан красавец !!! смотрел с удовольствием



    Дорогой пользователь! Огромная просьба, поблагодарите релизера, оцените раздачу и оставьте свои комментарий, если Вы скачали Ruslan Provodnikov vs Jose Luis Castillo & undercard через торрент бесплатно!!
    Комментировать посты могут только пользователи прошедшие не сложную регистрацию
    Показать сообщения:    


    Ruslan Provodnikov vs Jose Luis Castillo & undercard через торрент
    Скачать бесплатно Ruslan Provodnikov vs Jose Luis Castillo & undercard
    Ruslan Provodnikov vs Jose Luis Castillo & undercard скачать торрент
    Ruslan Provodnikov vs Jose Luis Castillo & undercard смотреть онлайн
    Cкачать фильм Ruslan Provodnikov vs Jose Luis Castillo & undercard бесплатно
    Ruslan Provodnikov vs Jose Luis Castillo & undercard скачать торрент в хорошем качестве
    Ruslan Provodnikov vs Jose Luis Castillo & undercard смотреть онлайн бесплатно в хорошем качестве
    Вы не можете начинать темы
    Вы не можете отвечать на сообщения
    Вы не можете редактировать свои сообщения
    Вы не можете удалять свои сообщения
    Вы не можете голосовать в опросах
    Вы не можете прикреплять файлы к сообщениям
    Вы можете скачивать файлы