Ссылка на приватное зеркало нашего сайта всего за 1$. Внимание количество ограничено!!!

2 сезон

iTunes

1 сезон

1

2 сезон

2 сезон

iTunes

1 сезон

RePack

30

Ultimate

ВАЖНО

ИГРА 18+

pack

RePack

MK11
pack

Забери бонус

RePack

jed

!!Акция!!

Alien_Rage

RePack

fifa19

RePack

Assassins Creed: Odyssey

RePack

NEED FOR SPEED™ PAYBACK

4 сезон

9 сезон

Бесстыжие 9 сезон

Все сериалы

все сериалы на PB.wtf

RePack

FAR CRY 5
  

Спасение / The Salvation (Кристиан Левринг ) [2014, драма, вестерн, BDRip 1080p, Профессиональное (двухголосое) [Студия Jaskier] от R.G. HD-Films pb.wtf

Спасение через торрент pb.wtf

Размер: 7.55 GB | Добавлен: 5 лет 11 мес. назад | Торрент скачан:308 раз
Скачать  

04-12-2014 06:19 Спасение Скачать торрент  


Спасение / The Salvation
«Плохие парни умоются кровью»

Год выпуска:2014
Страна: Дания, Великобритания, ЮАР
Жанр:драма, вестерн
Продолжительность:01:32:00
Перевод:Профессиональное (двухголосое) [Студия Jaskier]
Режиссер:Кристиан Левринг

  • В ролях:

    Мадс Миккельсен (Jon), Ева Грин (Madelaine), Джеффри Дин Морган (Delarue), Эрик Кантона (Corsican), Микаэл Персбрандт (Peter), Дуглас Хеншэлл (Mallick), Майкл Рэймонд-Джеймс (Paul), Джонатан Прайс (Keane), Александр Арнольд (Voichek), Нанна Оланд Фабрициус (Marie), Токе Бьярке (Kresten), Шон Майкл (Lester)
  • Описание:
    Джон, фермер, чья семья убита, дает клятву отомстить, выслеживает и наказывает убийцу. Его действия запускают цепочку насилия: лидер местной банды со своими напарниками решает расправиться с Джоном и его деревней.

  • Мировая премьера:17 мая 2014

    Качество: BDRip 1080p
    Формат:MKV
    Видео кодек: AVC
    Аудио кодек:AC3
    Видео: AVC, 1920x808 (2.40:1), 11500 kbps, 24 fps, 0,309 bpp
    Аудио: русский / AC3 / 5.1 / 48 kHz / 448 kbps / 16 bit ||
    Навигация по главам: есть


    Код:

    Общее
    Уникальный идентификатор : 231368430389893427339034644864418355784 (0xAE0FF056FDB096C4A83C9901B83E9A48)
    Полное имя : D:ТорентыРаздачиThe Salvation.1080p_R.G. HD-Films_DVO.mkv
    Формат : Matroska
    Версия формата : Version 4 / Version 2
    Размер файла : 7,55 Гбайт
    Продолжительность : 1 ч. 32 м.
    Общий поток : 11,7 Мбит/сек
    Название фильма : Release for Piratbit.net_R.G. HD-Films
    Дата кодирования : UTC 2014-12-04 06:12:01
    Программа кодирования : mkvmerge v7.3.0 ('Nouages') 64bit built on Oct 22 2014 18:53:34
    Библиотека кодирования : libebml v1.3.0 + libmatroska v1.4.1
    DURATION : 01:31:59.872000000
    NUMBER_OF_FRAMES : 172496
    NUMBER_OF_BYTES : 309112832
    _STATISTICS_WRITING_APP : mkvmerge v7.3.0 ('Nouages') 64bit built on Oct 22 2014 18:53:34
    _STATISTICS_WRITING_DATE_UTC : 2014-12-04 06:12:01
    _STATISTICS_TAGS : BPS DURATION NUMBER_OF_FRAMES NUMBER_OF_BYTES
    Attachment : Yes

    Видео
    Идентификатор : 1
    Формат : AVC
    Формат/Информация : Advanced Video Codec
    Профиль формата : High@L4.1
    Параметр CABAC формата : Да
    Параметр ReFrames формата : 4 кадра
    Идентификатор кодека : V_MPEG4/ISO/AVC
    Продолжительность : 1 ч. 32 м.
    Битрейт : 11,5 Мбит/сек
    Ширина : 1920 пикселей
    Высота : 808 пикселей
    Соотношение сторон : 2,40:1
    Режим частоты кадров : Постоянный
    Частота кадров : 24,000 кадра/сек
    Цветовое пространство : YUV
    Субдискретизация насыщенности : 4:2:0
    Битовая глубина : 8 бит
    Тип развёртки : Прогрессивная
    Бит/(Пиксели*Кадры) : 0.309
    Размер потока : 7,11 Гбайт (94%)
    Заголовок : Release for Piratbit.net_R.G. HD-Films
    Библиотека кодирования : x264 core 142 r2479 dd79a61
    Настройки программы : cabac=1 / ref=4 / deblock=1:-1:-1 / analyse=0x3:0x113 / me=umh / subme=8 / psy=1 / psy_rd=1.00:0.15 / mixed_ref=1 / me_range=16 / chroma_me=1 / trellis=1 / 8x8dct=1 / cqm=0 / deadzone=21,11 / fast_pskip=1 / chroma_qp_offset=-3 / threads=12 / lookahead_threads=2 / sliced_threads=0 / nr=0 / decimate=1 / interlaced=0 / bluray_compat=0 / constrained_intra=0 / bframes=3 / b_pyramid=2 / b_adapt=2 / b_bias=0 / direct=3 / weightb=1 / open_gop=0 / weightp=2 / keyint=240 / keyint_min=24 / scenecut=40 / intra_refresh=0 / rc_lookahead=50 / rc=abr / mbtree=1 / bitrate=11500 / ratetol=1.0 / qcomp=0.60 / qpmin=0 / qpmax=69 / qpstep=4 / vbv_maxrate=62500 / vbv_bufsize=78125 / nal_hrd=none / filler=0 / ip_ratio=1.40 / aq=1:1.00
    Язык : Russian
    Default : Да
    Forced : Нет
    Основные цвета : BT.709
    Характеристики трансфера : BT.709
    Коэффициенты матрицы : BT.709
    DURATION : 01:32:00.792000000
    NUMBER_OF_FRAMES : 132499
    NUMBER_OF_BYTES : 7797889382
    _STATISTICS_WRITING_APP : mkvmerge v7.3.0 ('Nouages') 64bit built on Oct 22 2014 18:53:34
    _STATISTICS_WRITING_DATE_UTC : 2014-12-04 06:12:01
    _STATISTICS_TAGS : BPS DURATION NUMBER_OF_FRAMES NUMBER_OF_BYTES

    Аудио
    Идентификатор : 2
    Формат : AC-3
    Формат/Информация : Audio Coding 3
    Расширение режима : CM (complete main)
    Параметр Endianness формата : Big
    Идентификатор кодека : A_AC3
    Продолжительность : 1 ч. 32 м.
    Вид битрейта : Постоянный
    Битрейт : 448 Кбит/сек
    Каналы : 6 каналов
    Расположение каналов : Front: L C R, Side: L R, LFE
    Частота : 48,0 КГц
    Битовая глубина : 16 бит
    Метод сжатия : С потерями
    Задержка видео : -83 мс.
    Размер потока : 295 Мбайт (4%)
    Заголовок : Профессиональное (двухголосое) [Студия Jaskier]
    Язык : Russian
    Default : Да
    Forced : Нет

    Меню
    00:00:00.000 : :00:00:00.000
    00:09:59.917 : :00:09:59.792
    00:20:00.083 : :00:20:00.000
    00:29:59.958 : :00:29:59.833
    00:39:59.708 : :00:39:59.583
    00:49:59.917 : :00:49:59.792
    00:59:59.917 : :00:59:59.750
    01:09:59.792 : :01:09:59.625
    01:19:59.917 : :01:19:59.750
    01:30:00.042 : :01:29:59.917

    Скриншоты:


    Релиз подготовлен специально для Piratbit.net. by Raven
    pb.wtf



  • Скачать Спасение через торрент http://pic.kartinco.top/images/6/ordi9.jpg Скачать фильм Спасение через торрент бесплантно в хорошем качестве Описание:Джон, фермер, чья семья убита, дает клятву отомстить, выслеживает и наказывает убийцу. Его действия запускают цепочку насилия: ... 10 10 7
    Торрент: Зарегистрирован [2014-12-04 06:31] · скачан: 308 раз
    Статус: √ проверено
    Размер: 7.55 GB
    Как cкачать? Как скачать Спасение через торрент | qTorrent

    % Раздел Тема Автор DL S | L
    Фильмы [HD 720p, 1080p] (Хороший звук DUB, MVO) [ 13.4 GB ] Спасение / The Salvation [2014 BDRip 1080p] - ()+ DVO + AVO от R.G. HD-Films Ворон Скачать
    1 | 0
    Фильмы с авторской озвучкой [ 7.51 GB ] Спасение / The Salvation [2014 BDRip 1080p AVO [Алексей Матвеев aka Doctor Joker] от R.G. HD-Films Ворон Скачать
    1 | 0

    28-11-2019 20:33  

    Отключить всю рекламу на сайте

    25-03-2015 03:28 Спасение Скачать торрент  

    фильм супер, вестерн то еще:). смотреть рекомндуетсяpb.wtf



      Дорогой пользователь! Огромная просьба, поблагодарите релизера, оцените раздачу и оставьте свои комментарий, если Вы скачали Спасение через торрент бесплатно! Внесите свою лепту в развитие PiratBit!
      Комментировать посты могут только пользователи прошедшие не сложную регистрацию
      Показать сообщения:    

      Спасение через торрент
      Скачать бесплатно Спасение
      Спасение скачать торрент
      Спасение смотреть онлайн
      Cкачать фильм Спасение бесплатно
      Спасение скачать торрент в хорошем качестве
      Спасение смотреть онлайн бесплатно в хорошем качестве


      Вы не можете начинать темы
      Вы не можете отвечать на сообщения
      Вы не можете редактировать свои сообщения
      Вы не можете удалять свои сообщения
      Вы не можете голосовать в опросах
      Вы не можете прикреплять файлы к сообщениям
      Вы можете скачивать файлы