Всегда рабочее зеркало без VPN и Proxy просто перед .vidak.icu напиши любое слово или цифру, Пример http://bz8n.vidak.icu

MVO

2 сезон

1 сезон

1

1 сезон

iTunes

2 сезон

13

1 сезон

Deluxe

pack

Рекомендуем

Пиратка

30

ВАЖНО

RePack

MK11

RePack

jed

RePack

fifa19

RePack

RDR2

RePack

NEED FOR SPEED™ PAYBACK

Кинопоиск HD

6 сезон

 Острые козырьки 6 сезон

Все сериалы

все сериалы на PB.wtf

RePack

FAR CRY 5

Anonymous, нам критически не хватает 5601 руб. на оплату серверов и переферии за Апрель, помоги нам пожалуйста, вся надежда только на тебя. В благодарность мы отключим тебе всю рекламу на сайте!

×
  
Magnet ссылка

Исчезнувшая / Gone Girl (Дэвид Финчер ) [2014, триллер, драма, детектив, WEB-DLRip, Авторский (одноголосый) [Алексей Матвеев aka Doctor Joker] pb.wtf

Исчезнувшая через торрент pb.wtf

Размер: 2.04 GB | Добавлен: 7 лет 5 мес. назад | Торрент скачан:101 раз
Смотреть онлайн Исчезнувшая | Скачать    Ребята, помогите собрать деньги на оплату серверов!!!

13-12-2014 05:58 Исчезнувшая Скачать торрент  


Исчезнувшая / Gone Girl
«Что имеем — не храним, потерявши — плачем»

Год выпуска:2014
Страна: США
Жанр:триллер, драма, детектив
Продолжительность:02:29:15
Перевод:Авторский (одноголосый) [Алексей Матвеев aka Doctor Joker]
Режиссер:Дэвид Финчер

  • В ролях:

    Бен Аффлек (Nick Dunne), Розамунд Пайк (Amy Dunne), Кэрри Кун (Margo Dunne), Ким Диккенс (Detective Rhonda Boney), Нил Патрик Харрис (Desi Collings), Тайлер Перри (Tanner Bolt), Патрик Фьюджит (Officer Jim Gilpin), Мисси Пайл (Ellen Abbott), Эмили Ратажковски (Andie), Скут МакНэйри (Tommy O'Hara), Дэвид Кленнон (Rand Elliot), Лиза Бейнс (Marybeth Elliott)
  • Описание:
    Все было готово для празднования пятилетнего юбилея супружеской жизни, когда вдруг необъяснимо пропал один из виновников торжества. Остались следы борьбы в доме, кровь, которую явно пытались стереть, - и цепочка «ключей» в игре под названием «охота за сокровищами»; красивая, умная и невероятно изобретательная жена ежегодно устраивала ее для своего обожаемого мужа. И похоже, что эти «ключи» - размещенные ею тут и там странные записки и не менее странные безделушки - дают единственный шанс пролить свет на судьбу исчезнувшей. Вот только не придется ли «охотнику» в процессе поиска раскрыть миру и пару-тройку собственных малосимпатичных тайн?

  • Мировая премьера:26 сентября 2014

    Качество: WEB-DLRip
    Формат:AVI
    Видео кодек: XviD
    Аудио кодек:AC3
    Видео: XviD, 720x304 (2.35:1), 1687 kbps, 23,976 fps, 0,322 bpp
    Аудио: AC3 / 5.1 / 48 kHz / 256 kbps / 16 bit


    Код:

    General
    Complete name                            : D:\Торенты\G0ne.Girl.2014.A1.WEB-DLRip.2100MB.avi
    Format                                   : AVI
    Format/Info                              : Audio Video Interleave
    Format profile                           : OpenDML
    File size                                : 2.04 GiB
    Duration                                 : 2h 29mn
    Overall bit rate                         : 1 955 Kbps
    Writing application                      : VirtualDubMod 1.5.10.2 (build 2540/release)
    Writing library                          : VirtualDubMod build 2540/release

    Video
    ID                                       : 0
    Format                                   : MPEG-4 Visual
    Format profile                           : Advanced Simple@L5
    Format settings, BVOP                    : 2
    Format settings, QPel                    : No
    Format settings, GMC                     : No warppoints
    Format settings, Matrix                  : Default (MPEG)
    Codec ID                                 : XVID
    Codec ID/Hint                            : XviD
    Duration                                 : 2h 29mn
    Bit rate                                 : 1 687 Kbps
    Width                                    : 720 pixels
    Height                                   : 304 pixels
    Display aspect ratio                     : 2.35:1
    Frame rate                               : 23.976 fps
    Color space                              : YUV
    Chroma subsampling                       : 4:2:0
    Bit depth                                : 8 bits
    Scan type                                : Progressive
    Compression mode                         : Lossy
    Bits/(Pixel*Frame)                       : 0.322
    Stream size                              : 1.76 GiB (86%)
    Writing library                          : XviD 1.2.1 (UTC 2008-12-04)

    Audio
    ID                                       : 1
    Format                                   : AC-3
    Format/Info                              : Audio Coding 3
    Mode extension                           : CM (complete main)
    Codec ID                                 : 2000
    Duration                                 : 2h 28mn
    Bit rate mode                            : Constant
    Bit rate                                 : 256 Kbps
    Channel(s)                               : 6 channels
    Channel positions                        : Front: L C R, Side: L R, LFE
    Sampling rate                            : 48.0 KHz
    Bit depth                                : 16 bits
    Compression mode                         : Lossy
    Stream size                              : 273 MiB (13%)
    Alignment                                : Split accross interleaves
    Interleave, duration                     : 42 ms (1.00 video frame)
    Interleave, preload duration             : 500 ms

    Скриншоты:

    Срочно! Нужна помощь! Жмите

    © Оформление by Ворон
    pb.wtf



  • Скачать Исчезнувшая через торрент https://pic1.kartinco.top/images/61/ordi9.jpg Скачать, смотреть онлайн Исчезнувшая бесплантно в хорошем качестве Описание:Все было готово для празднования пятилетнего юбилея супружеской жизни, когда вдруг необъяснимо пропал один из виновников ... 9.8 10 6
    Торрент: Зарегистрирован [2014-12-13 05:59] · скачан: 101 раз
    Статус: √ проверено
    Размер: 2.04 GB
    Как cкачать? Как скачать Исчезнувшая через торрент | UTorrent

    % Раздел Тема Автор DL S | L
    Фильмы (WEB-DL 720p, 1080p) [ 11.32 GB ] Исчезнувшая / Gone Girl [2014 WEB-DL 1080p ] DUB [ ] +2xAVO bober100 Скачать
    1 | 0
    Фильмы 2014 [DVDrip, WEB-DLRip, HDrip] [ 1.45 GB ] Исчезнувшая / Gone Girl [2014 HDRip] DUB [ R5] bober100 Скачать
    2 | 0
    Фильмы [HD 720p, 1080p] (Хороший звук DUB, MVO) [ 6.88 GB ] Исчезнувшая / Gone Girl [2014 BDRip 720p от _denis_100 / NNNB] DUB 2xAVO + Original + Sub _denis_100 Скачать
    3 | 0
    Фильмы 2014 [DVDrip, WEB-DLRip, HDrip] [ 1.46 GB ] Исчезнувшая / Gone Girl [2014 WEB-DLRip - / ] _KaisiK_ Скачать
    1 | 0
    Фильмы 2014 [DVDrip, WEB-DLRip, HDrip] [ 2.18 GB ] Исчезнувшая / Gone Girl [2014 BDRip-AVC] DUB potroks Скачать
    1 | 0
    Фильмы [HD 720p, 1080p] (Хороший звук DUB, MVO) [ 18.38 GB ] Исчезнувшая / Gone Girl [2014 BDRip 1080p] 2xDub + 2xAVO + Original + Sub Seedtank Скачать
    1 | 0
    Фильмы с авторской озвучкой [ 2.25 GB ] Исчезнувшая / Gone Girl [2014 BDRip] [AVO] killermax2013 Скачать
    1 | 0

    28-11-2019 20:33  

    Отключить всю рекламу на сайте

    13-12-2014 06:15 Исчезнувшая Скачать торрент  

    перевод отвратительный((((pb.wtf



    13-12-2014 09:27 Исчезнувшая Скачать торрент  

    перевод нормальный, но тихийpb.wtf



    13-12-2014 09:46 Исчезнувшая Скачать торрент  

    Перевод нормальный. С громкостью порядок.

    Спасибо за раздачу.pb.wtf



      Дорогой пользователь! Огромная просьба, поблагодарите релизера, оцените раздачу и оставьте свои комментарий, если Вы скачали Исчезнувшая через торрент бесплатно!
      Комментировать посты могут только пользователи прошедшие не сложную регистрацию
      Показать сообщения:    

      Исчезнувшая через торрент
      Скачать бесплатно Исчезнувшая
      Исчезнувшая скачать торрент
      Исчезнувшая смотреть онлайн
      Cкачать фильм Исчезнувшая бесплатно
      Исчезнувшая скачать торрент в хорошем качестве
      Исчезнувшая смотреть онлайн бесплатно в хорошем качестве


      Вы не можете начинать темы
      Вы не можете отвечать на сообщения
      Вы не можете редактировать свои сообщения
      Вы не можете удалять свои сообщения
      Вы не можете голосовать в опросах
      Вы не можете прикреплять файлы к сообщениям
      Вы можете скачивать файлы