Marvel's Avengers Deluxe Edition (супер цена) 159р. Внимание количество ограничено!!!

2 сезон

iTunes

iTunes

1

iTunes

iTunes

iTunes

WEBRip

iTunes

30
pack

Новость дня

ВАЖНО

!!Акция!!

Alien_RageХит недели

RePack

Horizon Zero Dawn

ИГРА 18+

pack

RePack

jed

!!Акция!!

Alien_Rage

RePack

fifa19

RePack

Assassins Creed: Odyssey

RePack

NEED FOR SPEED™ PAYBACK

4 сезон

9 сезон

Бесстыжие 9 сезон

Все сериалы

все сериалы на PB.wtf

RePack

FAR CRY 5
  

Медведи-соседи / Boonie Bears, to the Rescue! (Динг Лианг, Фуюань Лю / Ding Liang, Fuyuan Liu) [2014, мультфильм, комедия, приключения, DVD5] R5 pb.wtf

Медведи-соседи через торрент pb.wtf

Размер: 4.2 GB | Добавлен: 5 лет 9 мес. назад | Торрент скачан:152 раза
Скачать  

19-12-2014 17:55 Медведи-соседи Скачать торрент  


Медведи-соседи / Boonie Bears, to the Rescue!
Страна: Китай
Студия: Fantawild Animation, Le Vision Pictures
Жанр: мультфильм, комедия, приключения
Год выпуска: 2014
Мировая премьера: 17 января 2014
Российская премьера: 9 октября 2014, 3D
Дата выхода DVD: 11 декабря 2014
Продолжительность: 01:29:32
Перевод: Профессиональный (дублированный) [Лицензия]
Cубтитры: нет
Оригинальная аудиодорожка: нет
Режиссер: Динг Лианг, Фуюань Лю / Ding Liang, Fuyuan Liu
Роли озвучивали: Рик Джей Гленб Шиван Ламсденб Paul «Maxx» Rinehartб Тони Томпсонб Джастин Джозеф Вилер...
Роли дублировали: Дмитрий Хрусталев, Анатолий Сергеев, Тимур Батрутдинов, Александр Белый, Александр Воронов, Александр Зачиняев, Антон Савенков, Ольга Голованова, Алексей Шадхин, Екатерина Мирошникова, Иван Васильев
Описание: Медведям-соседям и вездесущему дровосеку придется стать нянями очутившегося у них в лесу ребенка. Все бы ничего, если бы эта девочка не была до этого похищена и упущена бандитами, которые жаждут ее вернуть и доставить заказчику — главному злодею. Теперь нашим героям предстоит сразиться с плохими парнями и помочь найти дорогу домой малышке.
Бонусы: нет

Релиз группы:
Качество: DVD5 R5
Формат: DVD-Video
Видео кодек: MPEG2
Аудио кодек: AC3
Видео: PAL 16:9 (720x576(0.571)) MPEG Video, 25,000 кадр/сек, 5923 Кбит/сек
Аудио: Russian (Dolby AC3, 6 ch) 448 Кбит/сек, 48,0 КГц



Title: Рабочий
Size: 4.20 Gb ( 4 408 738 KBytes ) - DVD-5
Enabled regions: 1, 2, 3, 4, 5, 6, 7, 8

VTS_01 :
Play Length: 00:00:19
Video: PAL 16:9 (720x576) VBR, Auto Pan&Scan, Auto Letterboxed
Audio:
Not specified (Dolby AC3, 2 ch)

VTS_02 :
Play Length: 01:29:32
Video: PAL 16:9 (720x576) VBR, Auto Pan&Scan, Auto Letterboxed
Audio:
Not specified (Dolby AC3, 6 ch)

Menu Video:
PAL 16:9 (720x576) VBR
Auto Pan&Scan, Auto Letterboxed
Menu Subtitles:
Not specified
Menu English Language Unit :
Root Menu
Общее
Полное имя : F:\Новинки 2014\Medvedi-sosedi.2014.DVD5\VIDEO_TS\VTS_02_2.VOB
Формат : MPEG-PS
Размер файла : 1024 Мбайт
Продолжительность : 22 м.
Режим общего битрейта : Переменный
Общий поток : 6501 Кбит/сек

Видео
Идентификатор : 224 (0xE0)
Формат : MPEG Video
Версия формата : Version 2
Профиль формата : Main@Main
Параметр BVOP формата : Да
Параметр матрицы формата : Выборочная
Параметр GOP формата : M=3, N=15
Format_Settings_PictureStructure : Frame
Продолжительность : 22 м.
Вид битрейта : Переменный
Битрейт : 5923 Кбит/сек
Максимальный битрейт : 9000 Кбит/сек
Ширина : 720 пикселей
Высота : 576 пикселей
Соотношение сторон : 16:9
Частота кадров : 25,000 кадров/сек
Стандарт вещания : PAL
Цветовое пространство : YUV
Субдискретизация насыщенности : 4:2:0
Битовая глубина : 8 бит
Тип развёртки : Чересстрочная
Порядок развёртки : Верхнее поле первое
Метод сжатия : С потерями
Бит/(Пиксели*Кадры) : 0.571
Временной код первого кадра : 00:24:23:18
Оригинал временного кода : Group of pictures header
Размер потока : 933 Мбайт (91%)

Аудио
Идентификатор : 189 (0xBD)-128 (0x80)
Формат : AC-3
Формат/Информация : Audio Coding 3
Расширение режима : CM (complete main)
Параметр Endianness формата : Big
Режим смешивания : DVD-Video
Продолжительность : 22 м.
Вид битрейта : Постоянный
Битрейт : 448 Кбит/сек
Каналы : 6 каналов
Расположение каналов : Front: L C R, Side: L R, LFE
Частота : 48,0 КГц
Битовая глубина : 16 бит
Метод сжатия : С потерями
Задержка видео : -680 мс.
Размер потока : 70,6 Мбайт (7%)










pb.wtf



Скачать Медведи-соседи через торрент http://i67.fastpic.ru/big/2014/1219/01/695aa2b50d2c28180226031a8e4bec01.jpg Скачать фильм Медведи-соседи через торрент бесплантно в хорошем качестве Описание: Медведям-соседям и вездесущему дровосеку придется стать нянями очутившегося у них в лесу ребенка. Все бы ничего, если бы эта ... 9.8 10 9
Info! Золотая раздача, скачанное не засчитывается.
Торрент: Зарегистрирован [2014-12-19 17:55] · скачан: 152 раз
Статус: √ проверено
Размер: 4.2 GB
Как cкачать? Как скачать Медведи-соседи через торрент | qTorrent

28-11-2019 20:33  

Отключить всю рекламу на сайте

    Дорогой пользователь! Огромная просьба, поблагодарите релизера, оцените раздачу и оставьте свои комментарий, если Вы скачали Медведи-соседи через торрент бесплатно! Внесите свою лепту в развитие PiratBit!
    Комментировать посты могут только пользователи прошедшие не сложную регистрацию
    Показать сообщения:    

    Медведи-соседи через торрент
    Скачать бесплатно Медведи-соседи
    Медведи-соседи скачать торрент
    Медведи-соседи смотреть онлайн
    Cкачать фильм Медведи-соседи бесплатно
    Медведи-соседи скачать торрент в хорошем качестве
    Медведи-соседи смотреть онлайн бесплатно в хорошем качестве


    Вы не можете начинать темы
    Вы не можете отвечать на сообщения
    Вы не можете редактировать свои сообщения
    Вы не можете удалять свои сообщения
    Вы не можете голосовать в опросах
    Вы не можете прикреплять файлы к сообщениям
    Вы можете скачивать файлы