Ссылка на приватное зеркало нашего сайта всего за 1$. Внимание количество ограничено!!!

2 сезон

iTunes

1 сезон

1

2 сезон

2 сезон

iTunes

1 сезон

RePack

30

Ultimate

ВАЖНО

ИГРА 18+

pack

RePack

MK11
pack

Забери бонус

RePack

jed

!!Акция!!

Alien_Rage

RePack

fifa19

RePack

Assassins Creed: Odyssey

RePack

NEED FOR SPEED™ PAYBACK

4 сезон

9 сезон

Бесстыжие 9 сезон

Все сериалы

все сериалы на PB.wtf

RePack

FAR CRY 5
  

Чужая земля / Outland (Питер Хайамс) [1981, фантастика, боевик, триллер, криминал, BDRip 1080p] DUB, DVO pb.wtf

Чужая земля через торрент pb.wtf

Размер: 7.75 GB | Добавлен: 5 лет 11 мес. назад | Торрент скачан:91 раз
Скачать  

21-12-2014 09:27 Чужая земля Скачать торрент  

Информация о фильме

Русское название: Чужая земля
Оригинальное название: Outland
Год выхода: 1981
Жанр: фантастика, боевик, триллер, криминал
Режиссер: Питер Хайамс
Выпущено: Великобритания
Продолжительность: 01:49:34
Перевод: Дублированный, Профессиональный (Двухголосый закадровый)
В ролях: Шон Коннери, Питер Бойл, Фрэнсис Стернхэйген, Джеймс Б. Сиккинг, Кика Маркэм, Кларк Питерс, Стивен Беркофф, Джон Ратценбергер, Николас Барнс, Мэннинг Редвуд


Сюжет фильма

ХХI век. Ио. Самый удаленный спутник Юпитера. Шериф О'Нейл обнаруживает махинации компании по добыче руды, которая распространяет среди шахтеров некий допинг, повышающий производительность труда, но имеющий опасные побочные эффекты. В конфронтации с руководителем компании у шерифа нет союзников, так что он готовится один вступить в схватку с наемными убийцами, посланных на ближайшем Шаттле.


Файл

Формат: AVC (библиотека кодирования x.264)
Контейнер (Расширение): MKV
Видео кодек: AVC
Аудио кодек:AC3
Качество: BDRip 1080p (исходник Blu-ray Disc Remux)
Видео: 1920x800, 9141 Кбит/сек, 23,976 кадр/сек, AVC, x264, High@L4.1, 2.40:1, 0.248 Бит/[Пиксели*Кадры]
Аудио 1: AC-3, 192 Кбит/сек, 2 канала(ов), 48,0 КГц - Дублированный, Варус Видео VHS / Русский
Аудио 2: AC-3, 192 Кбит/сек, 2 канала(ов), 48,0 КГц - Двухголосый закадровый, НТВ+ / Русский
Аудио 3: AC-3, 640 Кбит/сек, 6 канала(ов), 48,0 КГц - Оригинал / Английский
Субтитры: Английские | Полные
Форсированные субтитры: Нет
Чаптеры (Главы): Есть






Сэмпл




Автор Рипа: Сообщество:


скриншот   скриншот   скриншот  

Код:

Format                                   : Matroska
Format version                           : Version 2
File size                                : 7.75 GiB
Duration                                 : 1h 49mn
Overall bit rate                         : 10.1 Mbps
Movie name                               : Чужая земля.(1981).BDRip.1080p.[envy]
Encoded date                             : UTC 2014-12-21 08:31:02
Writing application                      : mkvmerge v5.8.0 ('No Sleep / Pillow') built on Sep  2 2012 15:37:04
Writing library                          : libebml v1.2.3 + libmatroska v1.3.0

Video
ID                                       : 1
Format                                   : AVC
Format/Info                              : Advanced Video Codec
Format profile                           : High@L4.1
Format settings, CABAC                   : Yes
Format settings, ReFrames                : 5 frames
Codec ID                                 : V_MPEG4/ISO/AVC
Duration                                 : 1h 49mn
Bit rate                                 : 9 141 Kbps
Width                                    : 1 920 pixels
Height                                   : 800 pixels
Display aspect ratio                     : 2.40:1
Frame rate mode                          : Constant
Frame rate                               : 23.976 fps
Color space                              : YUV
Chroma subsampling                       : 4:2:0
Bit depth                                : 8 bits
Scan type                                : Progressive
Bits/(Pixel*Frame)                       : 0.248
Stream size                              : 6.81 GiB (88%)
Title                                    : Чужая земля.(1981).BDRip.1080p.[envy]
Writing library                          : x264 core 142 r2491 24e4fed
Encoding settings                        : cabac=1 / ref=5 / deblock=1:-3:-3 / analyse=0x3:0x113 / me=umh / subme=11 / psy=1 / psy_rd=1.00:0.00 / mixed_ref=1 / me_range=32 / chroma_me=1 / trellis=2 / 8x8dct=1 / cqm=0 / deadzone=21,11 / fast_pskip=0 / chroma_qp_offset=-2 / threads=12 / lookahead_threads=1 / sliced_threads=0 / nr=0 / decimate=1 / interlaced=0 / bluray_compat=0 / constrained_intra=0 / bframes=5 / b_pyramid=2 / b_adapt=2 / b_bias=0 / direct=3 / weightb=1 / open_gop=0 / weightp=2 / keyint=240 / keyint_min=23 / scenecut=40 / intra_refresh=0 / rc=2pass / mbtree=0 / bitrate=9141 / ratetol=2.0 / qcomp=0.60 / qpmin=0 / qpmax=69 / qpstep=4 / cplxblur=20.0 / qblur=0.5 / ip_ratio=1.40 / pb_ratio=1.30 / aq=2:1.00
Language                                 : English
Default                                  : Yes
Forced                                   : No

Audio #1
ID                                       : 2
Format                                   : AC-3
Format/Info                              : Audio Coding 3
Mode extension                           : CM (complete main)
Format settings, Endianness              : Big
Codec ID                                 : A_AC3
Duration                                 : 1h 49mn
Bit rate mode                            : Constant
Bit rate                                 : 192 Kbps
Channel(s)                               : 2 channels
Channel positions                        : Front: L R
Sampling rate                            : 48.0 KHz
Bit depth                                : 16 bits
Compression mode                         : Lossy
Stream size                              : 150 MiB (2%)
Title                                    : Dub Варус Видео VHS
Language                                 : Russian
Default                                  : Yes
Forced                                   : No

Audio #2
ID                                       : 3
Format                                   : AC-3
Format/Info                              : Audio Coding 3
Mode extension                           : CM (complete main)
Format settings, Endianness              : Big
Codec ID                                 : A_AC3
Duration                                 : 1h 49mn
Bit rate mode                            : Constant
Bit rate                                 : 192 Kbps
Channel(s)                               : 2 channels
Channel positions                        : Front: L R
Sampling rate                            : 48.0 KHz
Bit depth                                : 16 bits
Compression mode                         : Lossy
Stream size                              : 150 MiB (2%)
Title                                    : DVO НТВ+
Language                                 : Russian
Default                                  : No
Forced                                   : No

Audio #3
ID                                       : 4
Format                                   : AC-3
Format/Info                              : Audio Coding 3
Mode extension                           : CM (complete main)
Format settings, Endianness              : Big
Codec ID                                 : A_AC3
Duration                                 : 1h 49mn
Bit rate mode                            : Constant
Bit rate                                 : 640 Kbps
Channel(s)                               : 6 channels
Channel positions                        : Front: L C R, Side: L R, LFE
Sampling rate                            : 48.0 KHz
Bit depth                                : 16 bits
Compression mode                         : Lossy
Stream size                              : 502 MiB (6%)
Title                                    : Eng
Language                                 : English
Default                                  : No
Forced                                   : No

Text
ID                                       : 5
Format                                   : UTF-8
Codec ID                                 : S_TEXT/UTF8
Codec ID/Info                            : UTF-8 Plain Text
Title                                    : full
Language                                 : English
Default                                  : No
Forced                                   : No

Menu
00:00:00.000                             : :Chapter 01
00:01:44.080                             : :Chapter 02
00:03:48.920                             : :Chapter 03
00:07:35.920                             : :Chapter 04
00:10:19.400                             : :Chapter 05
00:14:07.520                             : :Chapter 06
00:17:02.560                             : :Chapter 07
00:19:51.360                             : :Chapter 08
00:23:17.200                             : :Chapter 09
00:27:54.800                             : :Chapter 10
00:31:42.440                             : :Chapter 11
00:33:48.720                             : :Chapter 12
00:40:05.040                             : :Chapter 13
00:44:08.200                             : :Chapter 14
00:46:15.320                             : :Chapter 15
00:52:39.160                             : :Chapter 16
00:56:53.200                             : :Chapter 17
00:58:11.440                             : :Chapter 18
01:00:36.680                             : :Chapter 19
01:02:27.640                             : :Chapter 20
01:06:26.640                             : :Chapter 21
01:11:30.400                             : :Chapter 22
01:16:11.000                             : :Chapter 23
01:22:59.800                             : :Chapter 24
01:25:33.320                             : :Chapter 25
01:29:58.000                             : :Chapter 26
01:32:24.760                             : :Chapter 27
01:35:25.800                             : :Chapter 28
01:38:50.360                             : :Chapter 29
01:40:18.400                             : :Chapter 30
01:42:05.840                             : :Chapter 31



pb.wtf



Скачать Чужая земля через торрент http://www.firepic.org/images/2014-12/21/hlqlspbmxvq6.png Скачать фильм Чужая земля через торрент бесплантно в хорошем качестве В ролях: Шон Коннери, Питер Бойл, Фрэнсис Стернхэйген, Джеймс Б. Сиккинг, Кика Маркэм, Кларк Питерс, Стивен Беркофф, Джон Ратценбергер, ... 10 10 5
Info! Золотая раздача, скачанное не засчитывается.
Торрент: Зарегистрирован [2014-12-21 09:27] · скачан: 91 раз
Статус: √ проверено
Размер: 7.75 GB
Как cкачать? Как скачать Чужая земля через торрент | qTorrent

% Раздел Тема Автор DL S | L
Фильмы до 2000 г. [ 1.46 GB ] Чужая земля / Outland [1981 BDRip] DVO |НТВ+| + Original |Eng| Mr. Freeman Скачать
1 | 0

28-11-2019 20:33  

Отключить всю рекламу на сайте

21-12-2014 09:37 Чужая земля Скачать торрент  

еnvy, Постер yespb.wtf



    Дорогой пользователь! Огромная просьба, поблагодарите релизера, оцените раздачу и оставьте свои комментарий, если Вы скачали Чужая земля через торрент бесплатно! Внесите свою лепту в развитие PiratBit!
    Комментировать посты могут только пользователи прошедшие не сложную регистрацию
    Показать сообщения:    

    Чужая земля через торрент
    Скачать бесплатно Чужая земля
    Чужая земля скачать торрент
    Чужая земля смотреть онлайн
    Cкачать фильм Чужая земля бесплатно
    Чужая земля скачать торрент в хорошем качестве
    Чужая земля смотреть онлайн бесплатно в хорошем качестве


    Вы не можете начинать темы
    Вы не можете отвечать на сообщения
    Вы не можете редактировать свои сообщения
    Вы не можете удалять свои сообщения
    Вы не можете голосовать в опросах
    Вы не можете прикреплять файлы к сообщениям
    Вы можете скачивать файлы