Ссылка на приватное зеркало нашего сайта всего за 1$. Внимание количество ограничено!!!

2 сезон

iTunes

1 сезон

1

2 сезон

2 сезон

iTunes

1 сезон

RePack

30

Ultimate

ВАЖНО

ИГРА 18+

pack

RePack

MK11
pack

Забери бонус

RePack

jed

!!Акция!!

Alien_Rage

RePack

fifa19

RePack

Assassins Creed: Odyssey

RePack

NEED FOR SPEED™ PAYBACK

4 сезон

9 сезон

Бесстыжие 9 сезон

Все сериалы

все сериалы на PB.wtf

RePack

FAR CRY 5
  

После падения / After the Fall (Заар Клейн ) [2014, драма, криминал, WEB-DLRip, Любительский (одноголосый) [Pashaup] pb.wtf

После падения через торрент pb.wtf

Размер: 1.45 GB | Добавлен: 5 лет 11 мес. назад | Торрент скачан:209 раз
Скачать  

25-12-2014 07:03 После падения Скачать торрент  

После падения / After the Fall

Год выпуска: 2014
Страна: США
Жанр: драма, криминал
Продолжительность: 01:49:56
Перевод: Любительский (одноголосый) [Павел Морозов aka PashaUp] - по переводу [kalich411]
Режиссер: Заар Клейн
В ролях: Уэс Бентли (Bill Scanlon), Винесса Шоу (Susan Scanlon), Хейли Беннетт, Джейсон Айзекс (Frank McTiernan), Одри Уолтерс (Babs), Aaron Alexander (Bartender), Лайонел Арчулета (Bowler), Бет Бэйли (Doris), Райан Бегей (Bank Security Guard), Джереми Битсуи, Луис Бордонада (Jorge), Нэйтан Бриммер (Police Officer)
Описание:
Отец семейства среднего достатка встречается с финансовыми невзгодами, что вынуждает его стать закоренелым преступником в тайне от жены и детей, которых необходимо кормить и одевать...
Рейтинг:

MPAA: R - Лицам до 17 лет обязательно присутствие взрослого
Качество: WEB-DLRip
Формат: AVI
Видео кодек: XviD
Аудио кодек:AC3
Видео: XviD, 720x304 (2.35:1), 1496 kbps, 23,976 fps, 0,285 bpp
Аудио: AC3 / 5.1 / 48 kHz / 384 kbps / 16 bit

Код:

General
Complete name                            : D:\Торенты\Раздачи\After.the.Fall.2014.WEB-DLRip.1500mb.avi
Format                                   : AVI
Format/Info                              : Audio Video Interleave
File size                                : 1.45 GiB
Duration                                 : 1h 49mn
Overall bit rate                         : 1 890 Kbps
Writing application                      : VirtualDubModRus 1.5.10.2 (build 2542/release)
Writing library                          : VirtualDubMod build 2542/release

Video
ID                                       : 0
Format                                   : MPEG-4 Visual
Format profile                           : Advanced Simple@L5
Format settings, BVOP                    : 2
Format settings, QPel                    : No
Format settings, GMC                     : No warppoints
Format settings, Matrix                  : Default (H.263)
Muxing mode                              : Packed bitstream
Codec ID                                 : XVID
Codec ID/Hint                            : XviD
Duration                                 : 1h 49mn
Bit rate                                 : 1 497 Kbps
Width                                    : 720 pixels
Height                                   : 304 pixels
Display aspect ratio                     : 2.35:1
Frame rate                               : 23.976 fps
Color space                              : YUV
Chroma subsampling                       : 4:2:0
Bit depth                                : 8 bits
Scan type                                : Progressive
Compression mode                         : Lossy
Bits/(Pixel*Frame)                       : 0.285
Stream size                              : 1.15 GiB (79%)
Writing library                          : XviD 64

Audio
ID                                       : 1
Format                                   : AC-3
Format/Info                              : Audio Coding 3
Mode extension                           : CM (complete main)
Codec ID                                 : 2000
Duration                                 : 1h 49mn
Bit rate mode                            : Constant
Bit rate                                 : 384 Kbps
Channel(s)                               : 6 channels
Channel positions                        : Front: L C R, Side: L R, LFE
Sampling rate                            : 48.0 KHz
Bit depth                                : 16 bits
Compression mode                         : Lossy
Stream size                              : 302 MiB (20%)
Alignment                                : Split accross interleaves
Interleave, duration                     : 42 ms (1.00 video frame)
Interleave, preload duration             : 500 ms

pb.wtf



Скачать После падения через торрент http://i68.fastpic.ru/big/2014/1225/84/e67952533e390999ddeb07f0ca5f6c84.jpg Скачать фильм После падения через торрент бесплантно в хорошем качестве Описание: Отец семейства среднего достатка встречается с финансовыми невзгодами, что вынуждает его стать закоренелым преступником в тайне ... 7.8 10 4
Торрент: Зарегистрирован [2014-12-25 07:03] · скачан: 209 раз
Статус: T временная
Размер: 1.45 GB
Как cкачать? Как скачать После падения через торрент | qTorrent

% Раздел Тема Автор DL S | L
T Фильмы 2014 (Звук TS, Cam, VO, DVO) [ 698 MB ] После падения / After the Fall [2014 WEB-DLRip Любительский [Pashaup] Ворон Скачать
1 | 0

28-11-2019 20:33  

Отключить всю рекламу на сайте

    Дорогой пользователь! Огромная просьба, поблагодарите релизера, оцените раздачу и оставьте свои комментарий, если Вы скачали После падения через торрент бесплатно! Внесите свою лепту в развитие PiratBit!
    Комментировать посты могут только пользователи прошедшие не сложную регистрацию
    Показать сообщения:    

    После падения через торрент
    Скачать бесплатно После падения
    После падения скачать торрент
    После падения смотреть онлайн
    Cкачать фильм После падения бесплатно
    После падения скачать торрент в хорошем качестве
    После падения смотреть онлайн бесплатно в хорошем качестве


    Вы не можете начинать темы
    Вы не можете отвечать на сообщения
    Вы не можете редактировать свои сообщения
    Вы не можете удалять свои сообщения
    Вы не можете голосовать в опросах
    Вы не можете прикреплять файлы к сообщениям
    Вы можете скачивать файлы