Лицензия

MVO

1

1 сезон

Лицензия

Лицензия

13

MVO

1 сезон

Ultimate

pack

Рекомендуем

30

Repack

ВАЖНО

ВАЖНО

Ghostwire

RePack

jed

RePack

fifa19

RePack

RDR2

RePack

NEED FOR SPEED™ PAYBACK

RePack

Кинопоиск HD

 Острые козырьки 6 сезон

6 сезон

FAR CRY 6

RePack

Лицензия

MVO

1

1 сезон

1 сезон

Лицензия

  

Judas Priest - The Videos Ultimate Collectors Edition [2009 г., Heavy Metal, DVD9 ]

Judas Priest - The Videos Ultimate Collectors Edition через торрент pb.wtf

Размер: 7.47 GB | Добавлен: 7 лет 9 мес. назад | Торрент скачан:3 раза
Смотреть онлайн Judas Priest - The Videos Ultimate Collectors Edition | Скачать   

27-12-2014 09:32 Judas Priest - The Videos Ultimate Collectors Edition Скачать торрент  

Judas Priest - The Videos Ultimate Collectors EditionГод выпуска: 2009
Страна: UK
Жанр: Heavy Metal
Продолжительность: 02:20:15
Перевод: Профессиональный одноголосый

01. Living After Midnight
02. Breaking The Law
03. Don't Go
04. Heading Out To The Highway
05. Hot Rockin
06. You Ve Got Another Thing Comin
07. Freewheel Burning
08. Love Bites
09. Locked In
10. Turbo Lover
11. Johnny B Goode
12. Pankiller
13. A Touch Of Evil
14. A Touch Of Evil (Live)
15. Revolution
16. Revolution (Live)
17. Lost And Found
18. War
Качество: DVD9
Формат: DVD Video
Видео кодек: MPEG2
Аудио кодек: AC3
Видео: PAL 4:3 (720x576) VBR
Аудио#1: Русский, английский (Dolby AC3, 2 ch)



I:\a1\Judas.Priest-The.Videos.Ultimate.Collectors.Edition.2009.DVD-9\VIDEO_TS\VTS_01_2.VOB
General
Complete name : I:\a1\Judas.Priest-The.Videos.Ultimate.Collectors.Edition.2009.DVD-9\VIDEO_TS\VTS_01_2.VOB
Format : MPEG-PS
File size : 1 024 MiB
Duration : 56s 288ms
Overall bit rate mode : Variable
Overall bit rate : 153 Mbps
Video #224
ID : 224 (0xE0)
Format : MPEG Video
Format version : Version 2
Format profile : [email protected]
Format settings, BVOP : Yes
Format settings, Matrix : Custom
Format settings, GOP : Variable
Duration : 56s 240ms
Bit rate mode : Variable
Bit rate : 149 Mbps
Maximum bit rate : 9 800 Kbps
Width : 720 pixels
Height : 576 pixels
Display aspect ratio : 4:3
Frame rate : 25.000 fps
Standard : PAL
Color space : YUV
Chroma subsampling : 4:2:0
Bit depth : 8 bits
Scan type : Interlaced
Scan order : Top Field First
Compression mode : Lossy
Bits/(Pixel*Frame) : 14.401
Time code of first frame : 10:25:41:14
Time code source : Group of pictures header
Stream size : 1 001 MiB (98%)
Audio #189-128
ID : 189 (0xBD)-128 (0x80)
Format : AC-3
Format/Info : Audio Coding 3
Mode extension : CM (complete main)
Format settings, Endianness : Big
Muxing mode : DVD-Video
Duration : 56s 288ms
Bit rate mode : Constant
Bit rate : 256 Kbps
Channel(s) : 2 channels
Channel positions : Front: L R
Sampling rate : 48.0 KHz
Bit depth : 16 bits
Compression mode : Lossy
Delay relative to video : -216ms
Stream size : 1.72 MiB (0%)




Скачать Judas Priest - The Videos Ultimate Collectors Edition через торрент https://pic1.kartinco.top/images/81/ypczu.jpg Скачать, смотреть онлайн Judas Priest - The Videos Ultimate Collectors Edition [2009 г., Heavy Metal, DVD9 ] бесплантно в хорошем качестве Год выпуска: 2009Страна: UKЖанр: Heavy MetalПродолжительность: 02:20:15Перевод: Профессиональный одноголосый Living After Midnight ... 10 10 3
Info! Золотая раздача, скачанное не засчитывается.
Торрент: Зарегистрирован [2014-12-27 09:32] · скачан: 3 раз
Статус: √ проверено
Размер: 7.47 GB
Как cкачать? Как скачать Judas Priest - The Videos Ultimate Collectors Edition через торрент | UTorrent

28-11-2019 20:33  

Отключить вcю реклaмy на сайте

27-12-2014 13:36 Judas Priest - The Videos Ultimate Collectors Edition Скачать торрент  

Azat17, такое кол-во точек (после каждого слова в наименовании) ни к чему, просьба учесть в будущих раздачах.



    Дорогой пользователь! Огромная просьба, поблагодарите релизера, оцените раздачу и оставьте свои комментарий, если Вы скачали Judas Priest - The Videos Ultimate Collectors Edition через торрент бесплатно!!
    Комментировать посты могут только пользователи прошедшие не сложную регистрацию
    Показать сообщения:    


    Judas Priest - The Videos Ultimate Collectors Edition через торрент
    Скачать бесплатно Judas Priest - The Videos Ultimate Collectors Edition
    Judas Priest - The Videos Ultimate Collectors Edition скачать торрент
    Judas Priest - The Videos Ultimate Collectors Edition смотреть онлайн
    Cкачать фильм Judas Priest - The Videos Ultimate Collectors Edition бесплатно
    Judas Priest - The Videos Ultimate Collectors Edition скачать торрент в хорошем качестве
    Judas Priest - The Videos Ultimate Collectors Edition смотреть онлайн бесплатно в хорошем качестве
    Вы не можете начинать темы
    Вы не можете отвечать на сообщения
    Вы не можете редактировать свои сообщения
    Вы не можете удалять свои сообщения
    Вы не можете голосовать в опросах
    Вы не можете прикреплять файлы к сообщениям
    Вы можете скачивать файлы