Ссылка на приватное зеркало нашего сайта всего за 1$. Внимание количество ограничено!!!

2 сезон

iTunes

1 сезон

1

2 сезон

2 сезон

iTunes

1 сезон

RePack

30

Ultimate

ВАЖНО

ИГРА 18+

pack

RePack

MK11
pack

Забери бонус

RePack

jed

!!Акция!!

Alien_Rage

RePack

fifa19

RePack

Assassins Creed: Odyssey

RePack

NEED FOR SPEED™ PAYBACK

4 сезон

9 сезон

Бесстыжие 9 сезон

Все сериалы

все сериалы на PB.wtf

RePack

FAR CRY 5
  

Джей и Молчаливый Боб наносят ответный удар / Jay and Silent Bob Strike Back (Кевин Смит) [2001, комедия, BDRip 720p] DUB, MVO, AVO pb.wtf

Джей и Молчаливый Боб наносят ответный удар через торрент pb.wtf

Размер: 5.12 GB | Добавлен: 5 лет 10 мес. назад | Торрент скачан:358 раз
Скачать  

10-01-2015 13:03 Джей и Молчаливый Боб наносят ответный удар Скачать торрент  

Джей и Молчаливый Боб наносят ответный удар / Jay and Silent Bob Strike Back

Год выпуска: 2001
Страна: США
Жанр: комедия
Продолжительность: 01:45:07
Перевод: дублированный, профессиональный многоголосый, авторский
Субтитры: русские

Режиссёр: Кевин Смит

В ролях: Джейсон Мьюз, Кевин Смит, Шеннон Элизабет, Уилл Феррелл, Элиза Душку, Джейсон Ли, Эли Лартер, Дженнифер Швалбах Смит, Крис Рок, Джефф Андерсон, Брайан О’Хэллоран, Джадд Нельсон, Джордж Карлин, Кэрри Фишер, Шонн Уильям Скотт, Джон Стюарт, Трэйси Морган, Джейми Кеннеди, Марк Хэмилл, Эми Ноубл, Харли Куинн Смит, Эвер Кэррадайн, Брайан Эндрю Сейбл, Гэвин Брукс, Джон Уиллюнг, Джэйк Ричардсон, Ник Феллинджер, Винсент Перейра, Эрнест О’Доннелл, Танго, Марк Блукас, Мэттью Джеймс, Джейн Сильвия, Кармен Ллайвелин, Дэн Этеридж, Эрик Уинзенрид, Джон Гордон, Джон Мэйнард, Роберт Холцман, Том Дорфмайстер

Описание: Как-то раз в один погожий день небезызвестные Джей и Молчун Боб как всегда подпирали спиной стену бакалейной лавки в Нью-Джерси, и именно там их застало страшное известие, что их персоны, оказывается, лежат в основе комиксов «Пыхарь и Хроник», которые в Голливуде даже собираются экранизировать. Учитывая, что наша парочка не получила ни цента за то, что их именами нагло воспользовались, прилюдно выставив полными идиотами, Джей и Молчун Боб отправляются на студию «Miramax», дабы восстановить справедливость...



Качество: BDRip 720p Сравнение с исходником
Формат: MKV
Видео кодек: H.264
Аудио кодек: AC3
Видео: 5046 Kбит/с, 1280х544, 23.976 кадра/с, 0.302 bpp
Аудио 1: русский, AC3, 448 kbps, 6 ch, 48 kHz [дублированный]
Аудио 2: русский, AC3, 448 kbps, 6 ch, 48 kHz [профессиональный многоголосый, West]
Аудио 3: русский, AC3, 448 kbps, 6 ch, 48 kHz [авторский, Михаил Яроцкий (Kyberpunk)]
Аудио 4: английский, AC3, 448 kbps, 6 ch, 48 kHz [оригинал]

На звукодорожках 1 и 2 одинаковый перевод.

Во всех переводах ненормативная лексика.

Имеются неименованные главы/чаптеры.
Общее
Уникальный идентификатор : 171357794278470441958378045868113499484 (0x80EA4F8B6108E192A67FC075BD8D955C)
Полное имя : D:VideoDgej i molchalivyj Bob.2001.BDRip.720p.mkv
Формат : Matroska
Версия формата : Version 4 / Version 2
Размер файла : 5,12 Гбайт
Продолжительность : 1 ч. 45 м.
Общий поток : 6977 Кбит/сек
Дата кодирования : UTC 2015-01-10 11:03:29
Программа кодирования : mkvmerge v7.5.0 ('Glass Culture') 64bit built on Jan 4 2015 16:48:44
Библиотека кодирования : libebml v1.3.1 + libmatroska v1.4.2
_STATISTICS_WRITING_APP : mkvmerge v7.5.0 ('Glass Culture') 64bit built on Jan 4 2015 16:48:44
_STATISTICS_WRITING_DATE_UTC : 2015-01-10 11:03:29
_STATISTICS_TAGS : BPS DURATION NUMBER_OF_FRAMES NUMBER_OF_BYTES
DURATION : 01:45:07.328000000
NUMBER_OF_FRAMES : 197104
NUMBER_OF_BYTES : 353210368

Видео
Идентификатор : 1
Формат : AVC
Формат/Информация : Advanced Video Codec
Профиль формата : High@L4.1
Параметр CABAC формата : Да
Параметр ReFrames формата : 9 кадров
Идентификатор кодека : V_MPEG4/ISO/AVC
Продолжительность : 1 ч. 45 м.
Битрейт : 5046 Кбит/сек
Ширина : 1280 пикселей
Высота : 544 пикселя
Соотношение сторон : 2,35:1
Режим частоты кадров : Постоянный
Частота кадров : 23,976 кадра/сек
Цветовое пространство : YUV
Субдискретизация насыщенности : 4:2:0
Битовая глубина : 8 бит
Тип развёртки : Прогрессивная
Бит/(Пиксели*Кадры) : 0.302
Размер потока : 3,71 Гбайт (72%)
Заголовок : BDRip -- STarankov
Библиотека кодирования : x264 core 142 r2431 ac76440
Настройки программы : cabac=1 / ref=9 / deblock=1:-1:-1 / analyse=0x3:0x113 / me=umh / subme=10 / psy=1 / psy_rd=1.00:0.15 / mixed_ref=1 / me_range=32 / chroma_me=1 / trellis=2 / 8x8dct=1 / cqm=0 / deadzone=21,11 / fast_pskip=1 / chroma_qp_offset=-3 / threads=6 / lookahead_threads=1 / sliced_threads=0 / nr=0 / decimate=1 / interlaced=0 / bluray_compat=0 / constrained_intra=0 / bframes=8 / b_pyramid=2 / b_adapt=2 / b_bias=0 / direct=3 / weightb=1 / open_gop=0 / weightp=2 / keyint=230 / keyint_min=23 / scenecut=40 / intra_refresh=0 / rc_lookahead=40 / rc=crf / mbtree=0 / crf=18.0 / qcomp=0.60 / qpmin=0 / qpmax=69 / qpstep=4 / vbv_maxrate=40000 / vbv_bufsize=50000 / crf_max=0.0 / nal_hrd=none / filler=0 / ip_ratio=1.40 / pb_ratio=1.30 / aq=1:1.00
Язык : English
Default : Да
Forced : Нет
DURATION : 01:44:43.110000000
NUMBER_OF_FRAMES : 150644
NUMBER_OF_BYTES : 4090614586
_STATISTICS_WRITING_APP : mkvmerge v7.5.0 ('Glass Culture') 64bit built on Jan 4 2015 16:48:44
_STATISTICS_WRITING_DATE_UTC : 2015-01-10 11:03:29
_STATISTICS_TAGS : BPS DURATION NUMBER_OF_FRAMES NUMBER_OF_BYTES

Аудио #1
Идентификатор : 2
Формат : AC-3
Формат/Информация : Audio Coding 3
Расширение режима : CM (complete main)
Параметр Endianness формата : Big
Идентификатор кодека : A_AC3
Продолжительность : 1 ч. 45 м.
Вид битрейта : Постоянный
Битрейт : 448 Кбит/сек
Каналы : 6 каналов
Расположение каналов : Front: L C R, Side: L R, LFE
Частота : 48,0 КГц
Битовая глубина : 16 бит
Метод сжатия : С потерями
Размер потока : 337 Мбайт (6%)
Заголовок : DUB
Язык : Russian
Default : Да
Forced : Нет

Аудио #2
Идентификатор : 3
Формат : AC-3
Формат/Информация : Audio Coding 3
Расширение режима : CM (complete main)
Параметр Endianness формата : Big
Идентификатор кодека : A_AC3
Продолжительность : 1 ч. 45 м.
Вид битрейта : Постоянный
Битрейт : 448 Кбит/сек
Каналы : 6 каналов
Расположение каналов : Front: L C R, Side: L R, LFE
Частота : 48,0 КГц
Битовая глубина : 16 бит
Метод сжатия : С потерями
Размер потока : 337 Мбайт (6%)
Заголовок : MVO (West)
Язык : Russian
Default : Нет
Forced : Нет

Аудио #3
Идентификатор : 4
Формат : AC-3
Формат/Информация : Audio Coding 3
Расширение режима : CM (complete main)
Параметр Endianness формата : Big
Идентификатор кодека : A_AC3
Продолжительность : 1 ч. 45 м.
Вид битрейта : Постоянный
Битрейт : 448 Кбит/сек
Каналы : 6 каналов
Расположение каналов : Front: L C R, Side: L R, LFE
Частота : 48,0 КГц
Битовая глубина : 16 бит
Метод сжатия : С потерями
Размер потока : 337 Мбайт (6%)
Заголовок : AVO (Михаил Яроцкий (Kyberpunk))
Язык : Russian
Default : Нет
Forced : Нет

Аудио #4
Идентификатор : 5
Формат : AC-3
Формат/Информация : Audio Coding 3
Расширение режима : CM (complete main)
Параметр Endianness формата : Big
Идентификатор кодека : A_AC3
Продолжительность : 1 ч. 45 м.
Вид битрейта : Постоянный
Битрейт : 448 Кбит/сек
Каналы : 6 каналов
Расположение каналов : Front: L C R, Side: L R, LFE
Частота : 48,0 КГц
Битовая глубина : 16 бит
Метод сжатия : С потерями
Размер потока : 337 Мбайт (6%)
Заголовок : Original
Язык : English
Default : Нет
Forced : Нет

Текст
Идентификатор : 6
Формат : UTF-8
Идентификатор кодека : S_TEXT/UTF8
Идентификатор кодека/Информация : UTF-8 Plain Text
Заголовок : русский
Язык : Russian
Default : Нет
Forced : Нет

Меню
00:00:00.000 : :Chapter 01
00:04:43.783 : :Chapter 02
00:12:55.941 : :Chapter 03
00:16:29.196 : :Chapter 04
00:23:55.809 : :Chapter 05
00:29:28.016 : :Chapter 06
00:33:25.128 : :Chapter 07
00:43:24.935 : :Chapter 08
00:49:59.871 : :Chapter 09
00:58:21.956 : :Chapter 10
01:02:23.281 : :Chapter 11
01:04:46.090 : :Chapter 12
01:08:52.128 : :Chapter 13
01:14:56.783 : :Chapter 14
01:21:11.199 : :Chapter 15
01:30:17.203 : :Chapter 16
01:32:46.602 : :Chapter 17
01:34:19.612 : :Chapter 18
pb.wtf



Скачать Джей и Молчаливый Боб наносят ответный удар через торрент http://i64.fastpic.ru/big/2015/0110/d6/16593553fe374edf592dbbd84883b5d6.jpg Скачать фильм Джей и Молчаливый Боб наносят ответный удар через торрент бесплантно в хорошем качестве Описание: Как-то раз в один погожий день небезызвестные Джей и Молчун Боб как всегда подпирали спиной стену бакалейной лавки в Нью-Джерси, ... 10 10 16
Info! Золотая раздача, скачанное не засчитывается.
Торрент: Зарегистрирован [2015-01-10 13:03] · скачан: 358 раз
Статус: √ проверено
Размер: 5.12 GB
Как cкачать? Как скачать Джей и Молчаливый Боб наносят ответный удар через торрент | qTorrent

% Раздел Тема Автор DL S | L
Фильмы [HD 720p, 1080p] (Хороший звук DUB, MVO) [ 9.92 GB ] Джей и Молчаливый Боб наносят ответный удар / Jay and Silent Bob Strike Back [2001 BDRip 1080p] DUB MVO AVO msltel Скачать
2 | 0

28-11-2019 20:33  

Отключить всю рекламу на сайте

10-01-2015 13:13 Джей и Молчаливый Боб наносят ответный удар Скачать торрент  

дубляж-это просто бомба! pb.wtf



10-01-2015 14:43 Джей и Молчаливый Боб наносят ответный удар Скачать торрент  

На звукодорожках 1 и 2 одинаковый перевод.........чАво??? ......а зачем???pb.wtf



    Дорогой пользователь! Огромная просьба, поблагодарите релизера, оцените раздачу и оставьте свои комментарий, если Вы скачали Джей и Молчаливый Боб наносят ответный удар через торрент бесплатно! Внесите свою лепту в развитие PiratBit!
    Комментировать посты могут только пользователи прошедшие не сложную регистрацию
    Показать сообщения:    

    Джей и Молчаливый Боб наносят ответный удар через торрент
    Скачать бесплатно Джей и Молчаливый Боб наносят ответный удар
    Джей и Молчаливый Боб наносят ответный удар скачать торрент
    Джей и Молчаливый Боб наносят ответный удар смотреть онлайн
    Cкачать фильм Джей и Молчаливый Боб наносят ответный удар бесплатно
    Джей и Молчаливый Боб наносят ответный удар скачать торрент в хорошем качестве
    Джей и Молчаливый Боб наносят ответный удар смотреть онлайн бесплатно в хорошем качестве


    Вы не можете начинать темы
    Вы не можете отвечать на сообщения
    Вы не можете редактировать свои сообщения
    Вы не можете удалять свои сообщения
    Вы не можете голосовать в опросах
    Вы не можете прикреплять файлы к сообщениям
    Вы можете скачивать файлы