Ссылка на приватное зеркало всего за 1$. Внимание количество ограничено!!!

OK

1+1

iTunes

мы

OK

1

WEB-DLRip

Джокер

Пифагор

Ведьмак / The Witcher сериал

Лицензия

ПШазам

ОК

Оно 2

iTunes

30
pack

Вам бонус

ВАЖНО

!!Акция!!

Alien_RageХит недели

RePack

Resident Evil 21

ИГРА 18+

pack

RePack

jed

RePack

fifa19

RePack

Assassins Creed: Odyssey

RePack

NEED FOR SPEED™ PAYBACK

4 сезон

9 сезон

Бесстыжие 9 сезон

Все сериалы

все сериалы на PB.wtf

RePack

FAR CRY 5
  

Феи: Спорт и торт / Pixie Hollow Bake Off (Эллиот М. Бур ) [2014, мультфильм, короткометражка, BD Remux, Дубляж] pb.wtf

Феи: Спорт и торт через торрент pb.wtf

Раздают: 1 [ 0 KB/s ]
Размер: 1.14 GB | Добавлен: 5 лет назад | Торрент скачан:377 раз
Скачать  

12-01-2015 08:52 Феи: Спорт и торт Скачать торрент  


Феи: Спорт и торт / Pixie Hollow Bake Off


Год выпуска:2014
Страна:США
Жанр:мультфильм, короткометражка
Продолжительность: 00:05:21
Перевод:Дубляж
Субтитры: русские (Rus Sub - full), английские (Eng Sub - SDH),
Режиссер:Эллиот М. Бур
В ролях:

Памела Адлон (Vidia, озвучка), Джефф Беннетт (Clank / Fairy Gary, озвучка), Джада Де Лаурентиис (Gelata, озвучка), Меган Хилти (Rosetta, озвучка), Джейн Хоррокс (Fairy Mary, озвучка), Анжелика Хьюстон (Queen Clarion, озвучка), Люси Лью (Silvermist, озвучка), Роб Полсен (Bobble, озвучка), Рэйвен (Iridessa, озвучка), Мэй Уитман (Tinker Bell, озвучка)
  • Описание:
    В честь именин королевы Глэрион в долине фей организовали кулинарный поединок. У каждой феи есть своя команда. Джелата давно известна своими кулинарными изделиями, а Динь-Динь вместе со своей командой впервые пробует свои силы в кулинарии. К её приезду герои должны испечь просто великолепный пирог.


    Качество: BD Remux
    Формат:MKV
    Видео кодек: AVC
    Аудио кодек:AC3
    Видео: AVC, 1920x1080 (16:9), 29132 kbps, 23,976 fps, 0,586 bpp
    Аудио №1: русский / AC3 / 2.0 / 48 kHz / 320 kbps / 16 bit ||
    Аудио №2: английский / AC3 / 2.0 / 48 kHz / 320 kbps / 16 bit

    Код:

    General
    Unique ID                                : 252201708440884796437625833466854281441 (0xBDBC48404DAB2D18967AB3D7939A90E1)
    Complete name                            : D:\Торенты\Pixie Hollow. Bake off.2013.BDRemux 1080p.mkv
    Format                                   : Matroska
    Format version                           : Version 4 / Version 2
    File size                                : 1.14 GiB
    Duration                                 : 5mn 21s
    Overall bit rate mode                    : Variable
    Overall bit rate                         : 30.4 Mbps
    Movie name                               : Pixie Hollow. Bake off.2013.BDRemux 1080p -Azureus-
    Encoded date                             : UTC 2014-05-12 12:17:21
    Writing application                      : mkvmerge v6.8.0 ('Theme for Great Cities') 32bit built on Mar  2 2014 21:27:07
    Writing library                          : libebml v1.3.0 + libmatroska v1.4.1

    Video
    ID                                       : 1
    Format                                   : AVC
    Format/Info                              : Advanced Video Codec
    Format profile                           : High@L4.1
    Format settings, CABAC                   : Yes
    Format settings, ReFrames                : 4 frames
    Codec ID                                 : V_MPEG4/ISO/AVC
    Duration                                 : 5mn 21s
    Bit rate mode                            : Variable
    Bit rate                                 : 29.1 Mbps
    Maximum bit rate                         : 40.0 Mbps
    Width                                    : 1 920 pixels
    Height                                   : 1 080 pixels
    Display aspect ratio                     : 16:9
    Frame rate                               : 23.976 fps
    Color space                              : YUV
    Chroma subsampling                       : 4:2:0
    Bit depth                                : 8 bits
    Scan type                                : Progressive
    Bits/(Pixel*Frame)                       : 0.586
    Stream size                              : 1.09 GiB (96%)
    Language                                 : English
    Default                                  : Yes
    Forced                                   : No

    Audio #1
    ID                                       : 2
    Format                                   : AC-3
    Format/Info                              : Audio Coding 3
    Mode extension                           : CM (complete main)
    Codec ID                                 : A_AC3
    Duration                                 : 5mn 21s
    Bit rate mode                            : Constant
    Bit rate                                 : 320 Kbps
    Channel(s)                               : 2 channels
    Channel positions                        : Front: L R
    Sampling rate                            : 48.0 KHz
    Bit depth                                : 16 bits
    Compression mode                         : Lossy
    Stream size                              : 12.3 MiB (1%)
    Title                                    : DUB
    Language                                 : Russian
    Default                                  : Yes
    Forced                                   : No

    Audio #2
    ID                                       : 3
    Format                                   : AC-3
    Format/Info                              : Audio Coding 3
    Mode extension                           : CM (complete main)
    Codec ID                                 : A_AC3
    Duration                                 : 5mn 21s
    Bit rate mode                            : Constant
    Bit rate                                 : 320 Kbps
    Channel(s)                               : 2 channels
    Channel positions                        : Front: L R
    Sampling rate                            : 48.0 KHz
    Bit depth                                : 16 bits
    Compression mode                         : Lossy
    Stream size                              : 12.3 MiB (1%)
    Title                                    : ENG
    Language                                 : English
    Default                                  : No
    Forced                                   : No

    Text #1
    ID                                       : 4
    Format                                   : UTF-8
    Codec ID                                 : S_TEXT/UTF8
    Codec ID/Info                            : UTF-8 Plain Text
    Title                                    : Rus Sub - full
    Language                                 : Russian
    Default                                  : No
    Forced                                   : No

    Text #2
    ID                                       : 5
    Format                                   : UTF-8
    Codec ID                                 : S_TEXT/UTF8
    Codec ID/Info                            : UTF-8 Plain Text
    Title                                    : Eng Sub - SDH
    Language                                 : English
    Default                                  : No
    Forced                                   : No


    Скриншоты:
    Каталог Новинок (Фильмы-трейлеры, Игры, Сериалы, Мультфильмы)

    © Оформление by Ворон
    pb.wtf



  • Скачать Феи: Спорт и торт через торрент http://pic.kartinco.top/images/6/ordi9.jpg Скачать фильм Феи: Спорт и торт через торрент бесплантно в хорошем качестве Описание:В честь именин королевы Глэрион в долине фей организовали кулинарный поединок. У каждой феи есть своя команда. Джелата давно ... 10 10 7
    Торрент: Зарегистрирован [2015-01-12 08:52] · скачан: 377 раз
    Статус: √ проверено
    Размер: 1.14 GB
    Как cкачать? Как скачать Феи: Спорт и торт через торрент | qTorrent

    28-11-2019 20:33  

    Отключить всю рекламу на сайте

      Дорогой пользователь! Огромная просьба, поблагодарите релизера, оцените раздачу и оставьте свои комментарий, если Вы скачали Феи: Спорт и торт через торрент бесплатно! Внесите свою лепту в развитие PiratBit!
      Комментировать посты могут только пользователи прошедшие не сложную регистрацию
      Показать сообщения:    

      Феи: Спорт и торт через торрент
      Скачать бесплатно Феи: Спорт и торт
      Феи: Спорт и торт скачать торрент
      Феи: Спорт и торт смотреть онлайн
      Cкачать фильм Феи: Спорт и торт бесплатно
      Феи: Спорт и торт скачать торрент в хорошем качестве
      Феи: Спорт и торт смотреть онлайн бесплатно в хорошем качестве


      Вы не можете начинать темы
      Вы не можете отвечать на сообщения
      Вы не можете редактировать свои сообщения
      Вы не можете удалять свои сообщения
      Вы не можете голосовать в опросах
      Вы не можете прикреплять файлы к сообщениям
      Вы можете скачивать файлы