Всегда рабочее зеркало без VPN и Proxy просто перед .vidak.icu напиши любое слово или цифру, Пример http://hjis.vidak.icu

MVO

2 сезон

2 сезон

1

1 сезон

iTunes

2 сезон

13

1 сезон

Deluxe

pack

Рекомендуем

Пиратка

30

ВАЖНО

RePack

MK11

RePack

jed

RePack

fifa19

RePack

RDR2

RePack

NEED FOR SPEED™ PAYBACK

Кинопоиск HD

6 сезон

 Острые козырьки 6 сезон

Все сериалы

все сериалы на PB.wtf

RePack

FAR CRY 5

Anonymous, нам критически не хватает 5601 руб. на оплату серверов и переферии за Апрель, помоги нам пожалуйста, вся надежда только на тебя. В благодарность мы отключим тебе всю рекламу на сайте!

×
  
Magnet ссылка

Стрингер / Nightcrawler (Дэн Гилрой ) [2013, триллер, драма, криминал, BDRip, Авторский (одноголосый) [Матвеев Алексей (Doctor Joker) pb.wtf

Стрингер через торрент pb.wtf

Размер: 2.05 GB | Добавлен: 7 лет 3 мес. назад | Торрент скачан:30 раз
Смотреть онлайн Стрингер | Скачать    Ребята, помогите собрать деньги на оплату серверов!!!

10-02-2015 12:35 Стрингер Скачать торрент  


Стрингер / Nightcrawler
«Ночью город сияет ярче»

ИНФОРМАЦИЯ:
Год выпуска:2013
Страна: США
Жанр:триллер, драма, криминал
Продолжительность01:58:05
Перевод:Авторский (одноголосый) [Матвеев Алексей (Doctor Joker)
Субтитры: Русские (Матвеев), английские (Отдельно)
Режиссер:Дэн Гилрой

В Ролях:


Джейк Джилленхол (Louis Bloom), Рене Руссо (Nina Romina), Риз Ахмед (Rick), Билл Пэкстон (Joe Loder), Майкл Пападжон (Security Guard), Марко Родригес (Scrapyard Owner), Джеймс Хуанг (Marcus Mayhem Video), Кент Шокнек (Kent Shocknek), Пэт Харви (Pat Harvey), Шэрон Тэй (Sharon Tay), Рик Гарсиа (Rick Garcia), Леа Фредкин (Female Anchor)

ОПИСАНИЕ:
Молодой человек сталкивается с подпольным миром внештатной криминальной журналистики в Лос-Анджелесе.


ТЕХ.ДАННЫЕ:
Качество: BDRip
Формат:AVI
Видео кодек: XviD
Аудио кодек:AC3
Видео: XviD, 720x304 (2.35:1),1570 kbps, 23,976 fps, 0,282 bpp
Аудио №1: AC3 / 5.1 / 48 kHz / 448 kbps / RUS
Аудио №2: AC3 / 5.1 / 48 kHz / 448 kbps / ENG

Цитата:

Присутствует ненормативная лексика.

Перевод получился насыщенный и обильно сдобренный специальной лексикой, в т.ч. из тележурналистики и не только.
Работа велась с открытым сценарием Дэна Гилроя, непонятные моменты выискивались там

Заказ - будулайроманов
Работа со звуком - Переводман

Неологизмы:
фрилансер - человек вольного найма
найткроулер - человек, ведущий ночной образ жизни
найткроулинг - деятельность, осуществляемая под покровом ночи
стрингер - вольнонаёмный журналист
тайминг - место на временной дорожке файла
ньюсрум - студия новостей, в которой сидят редакторы, журналисты, монтажёры
лид - центральный сюжет, чаще всего с него начинают выпуск новостей; часть репортажа, "цепляющая зрителя"
лайв - прямой эфир
войсовер - закадровый текст, читаемый во время показа кадров хроники/материала
назначенный диспетчер - диспетчер, работающий с одним патрулём; противовес т.н. "региональному" диспетчеру, обслуживающему многие патрули.
зум - увеличение у видеокамеры/фотоаппарата
"почти несвободные" отношения - отношения, в которых партнёр позволяет себе раз в какое-то там время сходить на сторону; отличие от т.н. "свободных" отношений, в том, что верность партнёру хранится на 99%
з/п - зарплата
GPS - сокращение от "GPS-навигатора"
Хартфорд - страховая столица Америки, где и шагу ступить нельзя, чтобы тебя за что-то не засудили или не предложили застраховаться
ватермарка - "водяной знак", клеймо на картинке или видеоролике, показывающее, кому принадлежит материал
агрегатор новостей - сервис, собирающий самые интересные новости в одну кучу
наплыв - постепенное превращение одного изображения в другое, причём первое уходит в затемнение, а второе одновременно появляется из затемнения
шэйр - доля аудитории передачи
главная тема - музыка, играющая на заставке передачи
РВП - расчётное время прибытия

Названия стрингеров-соперников:
Видео-Ас - и так понятно, что значит
Мэйхем - переводится как "Разгром"

Значения полицейских кодов:
Код 2 - Обычный вызов, ехать с выключенными сиренами
Код 3 - Срочный вызов, ехать со включёнными сиренами
Код 6 - Полицейский покинул машину для патрулирования
Код 10 - Запрос на прогон частоты по преступлениям
Код 37 - Украдена машина

1-87 - Убийство
2-11 - Вооружённое ограбление
4-15 - Нарушение общественного порядка

Код:

General
Complete name                            : D:\Торенты\Stringer.2014.A.BDRip.ExKinoRay\Stringer.2014.A.BDRip.ExKinoRay.avi
Format                                   : AVI
Format/Info                              : Audio Video Interleave
File size                                : 2.05 GiB
Duration                                 : 1h 58mn
Overall bit rate                         : 2 484 Kbps
Genre                                    : Thriller/Crime/Drama
Writing application                      : VirtualDubMod 1.5.10.2 (build 2540/release)
Writing library                          : VirtualDubMod build 2540/release
Original source form/Name                : Movie

Video
ID                                       : 0
Format                                   : MPEG-4 Visual
Format profile                           : Advanced Simple@L5
Format settings, BVOP                    : 2
Format settings, QPel                    : No
Format settings, GMC                     : No warppoints
Format settings, Matrix                  : Custom
Codec ID                                 : XVID
Codec ID/Hint                            : XviD
Duration                                 : 1h 58mn
Bit rate                                 : 1570 Kbps
Width                                    : 720 pixels
Height                                   : 304 pixels
Display aspect ratio                     : 2.35:1
Frame rate                               : 23.976 fps
Color space                              : YUV
Chroma subsampling                       : 4:2:0
Bit depth                                : 8 bits
Scan type                                : Progressive
Compression mode                         : Lossy
Bits/(Pixel*Frame)                       : 0.282
Stream size                              : 1.22 GiB (60%)
Writing library                          : XviD 73

Audio #1
ID                                       : 1
Format                                   : AC-3
Format/Info                              : Audio Coding 3
Mode extension                           : CM (complete main)
Codec ID                                 : 2000
Duration                                 : 1h 58mn
Bit rate mode                            : Constant
Bit rate                                 : 448 Kbps
Channel(s)                               : 6 channels
Channel positions                        : Front: L C R, Side: L R, LFE
Sampling rate                            : 48.0 KHz
Bit depth                                : 16 bits
Compression mode                         : Lossy
Stream size                              : 378 MiB (18%)
Alignment                                : Split accross interleaves

Audio #2
ID                                       : 2
Format                                   : AC-3
Format/Info                              : Audio Coding 3
Mode extension                           : CM (complete main)
Codec ID                                 : 2000
Duration                                 : 1h 58mn
Bit rate mode                            : Constant
Bit rate                                 : 448 Kbps
Channel(s)                               : 6 channels
Channel positions                        : Front: L C R, Side: L R, LFE
Sampling rate                            : 48.0 KHz
Bit depth                                : 16 bits
Compression mode                         : Lossy
Stream size                              : 378 MiB (18%)
Alignment                                : Split accross interleaves

Скриншоты:


© Оформление by Ворон
pb.wtf



Скачать Стрингер через торрент https://pic1.kartinco.top/images/61/ordi9.jpg Скачать, смотреть онлайн Стрингер бесплантно в хорошем качестве Е:Молодой человек сталкивается с подпольным миром внештатной криминальной журналистики в Лос-Анджелесе. ТЕХ.ДАННЫЕ: ... 9.3 10 3
Торрент: Зарегистрирован [2015-02-10 12:35] · скачан: 30 раз
Статус: √ проверено
Размер: 2.05 GB
Как cкачать? Как скачать Стрингер через торрент | UTorrent

% Раздел Тема Автор DL S | L
Фильмы [HD 720p, 1080p] (Хороший звук DUB, MVO) [ 5.12 GB ] Стрингер / Nightcrawler [2014 BDRip 1080p HEVC ] Мичман37 Скачать
1 | 0
Фильмы 2014 [DVDrip, WEB-DLRip, HDrip] [ 1.47 GB ] Стрингер / Nightcrawler [2014 BDRip] MVO [] Twi7ter Скачать
1 | 0
Фильмы [HD 720p, 1080p] (Хороший звук DUB, MVO) [ 8.35 GB ] Стрингер / Nightcrawler [2014 BDRip 720p MVO] + ENG GEKADOL Скачать
1 | 0
Фильмы (Blu-ray, BD-Remux, HDDVD) [ 38.81 GB ] Стрингер / Nightcrawler [2014 Blu-ray 1080p / Custom] / MVO 3 x AVO Russian Mafia Скачать
1 | 0
Фильмы 2014 [DVDrip, WEB-DLRip, HDrip] [ 2.21 GB ] Стрингер / Nightcrawler [2014 HDRip многоголосый закадровый ""] coc900 Скачать
1 | 0
Фильмы [HD 720p, 1080p] (Хороший звук DUB, MVO) [ 11.99 GB ] Стрингер / Nightcrawler [2014 BDRip 1080p MVO] + ENG GEKADOL Скачать
1 | 0
Фильмы 2014 [DVDrip, WEB-DLRip, HDrip] [ 1.46 GB ] Стрингер / Nightcrawler [2014 BDRip многоголосый Twi7ter Скачать
1 | 0

28-11-2019 20:33  

Отключить всю рекламу на сайте

    Дорогой пользователь! Огромная просьба, поблагодарите релизера, оцените раздачу и оставьте свои комментарий, если Вы скачали Стрингер через торрент бесплатно!
    Комментировать посты могут только пользователи прошедшие не сложную регистрацию
    Показать сообщения:    

    Стрингер через торрент
    Скачать бесплатно Стрингер
    Стрингер скачать торрент
    Стрингер смотреть онлайн
    Cкачать фильм Стрингер бесплатно
    Стрингер скачать торрент в хорошем качестве
    Стрингер смотреть онлайн бесплатно в хорошем качестве


    Вы не можете начинать темы
    Вы не можете отвечать на сообщения
    Вы не можете редактировать свои сообщения
    Вы не можете удалять свои сообщения
    Вы не можете голосовать в опросах
    Вы не можете прикреплять файлы к сообщениям
    Вы можете скачивать файлы