Ссылка на приватное зеркало всего за 1$. Внимание количество ограничено!!!

OK

1+1

iTunes

мы

OK

1

WEB-DLRip

Джокер

Пифагор

Ведьмак / The Witcher сериал

Лицензия

ПШазам

ОК

Оно 2

iTunes

30
pack

Вам бонус

ВАЖНО

!!Акция!!

Alien_RageХит недели

RePack

Resident Evil 21

ИГРА 18+

pack

RePack

jed

!!Акция!!

Alien_Rage

RePack

fifa19

RePack

Assassins Creed: Odyssey

RePack

NEED FOR SPEED™ PAYBACK

4 сезон

9 сезон

Бесстыжие 9 сезон

Все сериалы

все сериалы на PB.wtf

RePack

FAR CRY 5
  

Шлагбаум (Дмитрий Туприн) [2013, Россия, драма, криминал, WEB-DLRip] pb.wtf

Шлагбаум через торрент pb.wtf

Размер: 1.37 GB | Добавлен: 4 года 11 мес. назад | Торрент скачан:470 раз
Скачать  

21-02-2014 09:03 Шлагбаум Скачать торрент  


Шлагбаум

«Evil wears many faces»

  • Год выпуска:2013
  • Страна:Россия
  • Жанр: драма, криминал
  • Продолжительность: 01:16:44
  • Перевод: Не требуется

  • Субтитры: Нет
  • Режиссер:Дмитрий Туприн
  • В ролях: Сергей Биликтуев, Баир Костров, Алдар Балханов, Илья Жепхолов, Виталий Цыремпилов, Цырен Дылыков, Арсалан Раднаев, Алдар Дугарон, Зула Доржиева, Арюна Доржиева
    • Описание:
      Тимур со своими друзьями ввязывается в криминальную авантюру на Байкале, но все заканчивается не так, как они ожидали. После этого лета их жизнь никогда не будет прежней.

    • Качество:WEB-DLRip
    • Формат:AVI
    • Видео кодек: XviD
    • Аудио кодек:AC3
    • Видео: 720x304 (2.35:1), 2157 kbps, 25 fps
    • Аудио: AC3 / 2.0 / 44 kHz / 384 kbps / 16 bit


    Код:

    General
    Complete name                            : D:ТорентыShlagbaum.2013.WEBDLRip.avi
    Format                                   : AVI
    Format/Info                              : Audio Video Interleave
    File size                                : 1.37 GiB
    Duration                                 : 1h 16mn
    Overall bit rate                         : 2 552 Kbps
    Writing application                      : VirtualDubMod 1.5.10.3 | www.virtualdub-fr.org || (build 2550/release)
    Writing library                          : VirtualDubMod build 2550/release

    Video
    ID                                       : 0
    Format                                   : MPEG-4 Visual
    Format profile                           : Advanced Simple@L5
    Format settings, BVOP                    : 2
    Format settings, QPel                    : No
    Format settings, GMC                     : No warppoints
    Format settings, Matrix                  : Default (MPEG)
    Codec ID                                 : XVID
    Codec ID/Hint                            : XviD
    Duration                                 : 1h 16mn
    Bit rate                                 : 2 158 Kbps
    Width                                    : 720 pixels
    Height                                   : 304 pixels
    Display aspect ratio                     : 2.35:1
    Frame rate                               : 25.000 fps
    Color space                              : YUV
    Chroma subsampling                       : 4:2:0
    Bit depth                                : 8 bits
    Scan type                                : Progressive
    Compression mode                         : Lossy
    Bits/(Pixel*Frame)                       : 0.394
    Stream size                              : 1.16 GiB (85%)
    Writing library                          : XviD 1.2.1 (UTC 2008-12-04)

    Audio
    ID                                       : 1
    Format                                   : AC-3
    Format/Info                              : Audio Coding 3
    Mode extension                           : CM (complete main)
    Codec ID                                 : 2000
    Duration                                 : 1h 16mn
    Bit rate mode                            : Constant
    Bit rate                                 : 384 Kbps
    Channel(s)                               : 2 channels
    Channel positions                        : Front: L R
    Sampling rate                            : 44.1 KHz
    Bit depth                                : 16 bits
    Compression mode                         : Lossy
    Stream size                              : 211 MiB (15%)
    Alignment                                : Split accross interleaves
    Interleave, duration                     : 40 ms (1.00 video frame)
    Interleave, preload duration             : 500 ms

    Скриншоты:

    Трейлеры к фильмам [2014]
    © Оформление by Raven pb.wtf



  • Скачать Шлагбаум через торрент http://pic.kartinco.top/images/6/ordi9.jpg Скачать фильм Шлагбаум через торрент бесплантно в хорошем качестве Описание:Тимур со своими друзьями ввязывается в криминальную авантюру на Байкале, но все заканчивается не так, как они ожидали. После этого ... 9.3 10 26
    Торрент: Зарегистрирован [2015-02-16 03:53] · скачан: 470 раз
    Статус: √ проверено
    Размер: 1.37 GB
    Как cкачать? Как скачать Шлагбаум через торрент | qTorrent



    Последний раз редактировалось: Ворон (2015-02-16 03:54), всего редактировалось 2 раз(а)

    28-11-2019 20:33  

    Отключить всю рекламу на сайте

    21-02-2014 09:37 Шлагбаум Скачать торрент  

    Наш бурятский кинематограф pb.wtf



    21-02-2014 10:55 Шлагбаум Скачать торрент  

    Dreadnight
    Ты с Бурятии?pb.wtf



    21-02-2014 13:32 Шлагбаум Скачать торрент  

    По-о-о-лный бредpb.wtf



    23-02-2014 06:00 Шлагбаум Скачать торрент  

    REJ01CE писал(а):

    Dreadnight
    Ты с Бурятии?

    да,оттудаpb.wtf



    26-02-2014 18:50 Шлагбаум Скачать торрент  

    Dreadnight писал(а):

    REJ01CE писал(а):

    Dreadnight
    Ты с Бурятии?

    да,оттуда

    ахахаххаххаpb.wtf



    05-03-2014 05:55 Шлагбаум Скачать торрент  

    редкостная, сумбурная, бессмысленная фигня!pb.wtf



    16-02-2015 08:38 Шлагбаум Скачать торрент  

    чёт лыжи не едут или я .... мож глюк какой...
    предыдущие комментарии к фильму годичной давности??? (февраль 2014г.)pb.wtf



    16-02-2015 13:21 Шлагбаум Скачать торрент  

    zik-2 писал(а):

    чёт лыжи не едут или я .... мож глюк какой...
    предыдущие комментарии к фильму годичной давности??? (февраль 2014г.)

    фильм прошлогодний)pb.wtf



      Дорогой пользователь! Огромная просьба, поблагодарите релизера, оцените раздачу и оставьте свои комментарий, если Вы скачали Шлагбаум через торрент бесплатно! Внесите свою лепту в развитие PiratBit!
      Комментировать посты могут только пользователи прошедшие не сложную регистрацию
      Показать сообщения:    

      Шлагбаум через торрент
      Скачать бесплатно Шлагбаум
      Шлагбаум скачать торрент
      Шлагбаум смотреть онлайн
      Cкачать фильм Шлагбаум бесплатно
      Шлагбаум скачать торрент в хорошем качестве
      Шлагбаум смотреть онлайн бесплатно в хорошем качестве


      Вы не можете начинать темы
      Вы не можете отвечать на сообщения
      Вы не можете редактировать свои сообщения
      Вы не можете удалять свои сообщения
      Вы не можете голосовать в опросах
      Вы не можете прикреплять файлы к сообщениям
      Вы можете скачивать файлы