Всегда рабочее зеркало без VPN и Proxy просто перед .vidak.icu напиши любое слово или цифру, Пример http://u9fi.vidak.icu

MVO

Лицензия

1 сезон

1

1 сезон

iTunes

1 сезон

13

1 сезон

Deluxe

pack

Рекомендуем

Repack

30

ВАЖНО

RePack

MK11

RePack

jed

RePack

fifa19

RePack

RDR2

RePack

NEED FOR SPEED™ PAYBACK

Кинопоиск HD

6 сезон

 Острые козырьки 6 сезон

Все сериалы

все сериалы на PB.wtf

RePack

FAR CRY 5
  
Magnet ссылка

Терминатор / The Terminator (Джеймс Кэмерон) [1984 г., Фантастика, боевик, BDRip, Дубляж] pb.wtf

Терминатор через торрент pb.wtf

Размер: 1.45 GB | Добавлен: 7 лет 4 мес. назад | Торрент скачан:303 раза
Смотреть онлайн Терминатор | Скачать    Ребята, помогите собрать деньги на оплату серверов!!!

17-02-2015 14:20 Терминатор Скачать торрент  

Терминатор / The Terminator
Год выпуска: 1984
Страна: США
Жанр: Фантастика, боевик
Продолжительность: 01:47:03
Перевод: Дубляж
Субтитры: нет

Режиссер: Джеймс Кэмерон

В ролях: Арнольд Шварценеггер, Майкл Бин, Линда Хэмилтон, Пол Уинфилд, Лэнс Хенриксен, Рик Россович, Бесс Мотта, Эрл Боэн, Дик Миллер, Шон Шеппс, Брюс М. Кернер, Франко Колумбу, Билл Пэкстон, Брэд Рирден, Брайан Томпсон, Уильям Уишер мл., Кен Фриц, Том Оберхауз, Эд Доганс, Джо Фараго, Хетти Линн Хёртес, Тони Мирелез, Филип Гордон, Энтони Тружильо, Стэн Йейл, Аль Кан, Лесли Моррис, Хью Фаррингтон, Харриет Медин

Описание: В центре сюжета — противостояние солдата Кайла Риза и киборга-терминатора, прибывших в 1984-ый год из пост-апокалиптического будущего, где миром правят машины-убийцы, а человечество находится на грани вымирания. Цель киборга: убить девушку по имени Сара Коннор, чей ещё нерождённый сын к 2029 году выиграет войну человечества с машинами. Цель солдата Кайла Риза: спасти Сару и остановить Терминатора любой ценой.

Качество: BDRip
Формат: AVI
Видео кодек: XviD
Аудио кодек: AC3
Видео: MPEG-4 ,Xvid (704x384), 1489 Кбит/с, 25.000 кадра/сек
Аудио#1: AC3,6 ch,448 kbps (Rus) 48.0 KHz Дублированный
скриншот   скриншот   скриншот  

Тип потока: Видео
Длительность: 01:47:03
Кодек: MPEG-4 Visual
Кодек/профиль: Advanced [email protected]
Кодек/ID: XVID
Размеры изображения: 704 x 384 (1.85:1)
Частота кадров: 23.976 fps
Размер потока: 1.11 GiB (77%)
Битрейт: 1 489 Kbps
Метод сжатия: Lossy
Библиотека кодирования: XviD 65
Цветовое пространство: YUV
Тип развёртки: Progressive
Колориметрия: 4:2:0
Глубина: 8 bits
:
Тип потока: Звук #1
Название: Terminator.1984.XviD.BDRip
Длительность: 01:47:03.456
Кодек: AC-3
Кодек/описание: Audio Coding 3
Кодек/ID: 2000
Частота дискретизации: 48.0 KHz
Каналов: 6 channels
Битрейт: 448 Kbps
Битрейт/тип: Constant
Размер потока: 343 MiB (23%)
Глубина: 16 bits
Метод сжатия: Lossy

pb.wtf



Скачать Терминатор через торрент https://pic1.kartinco.top/images/9/u1ybn.jpg Скачать, смотреть онлайн Терминатор бесплантно в хорошем качестве Описание: В центре сюжета — противостояние солдата Кайла Риза и киборга-терминатора, прибывших в 1984-ый год из пост-апокалиптического ... 10 10 21
Info! Золотая раздача, скачанное не засчитывается.
Торрент: Зарегистрирован [2015-02-17 14:20] · скачан: 303 раз
Статус: √ проверено
Размер: 1.45 GB
Как cкачать? Как скачать Терминатор через торрент | UTorrent

% Раздел Тема Автор DL S | L
Фильмы с авторской озвучкой [ 1.46 GB ] Терминатор / The Terminator [1984 BDRip] 2x[AVO] killermax2013 Скачать
2 | 0
Фильмы [HD 720p, 1080p] (Хороший звук DUB, MVO) [ 6.25 GB ] Терминатор 3: Восстание машин / Terminator 3: Rise of the Machines [2003 BDRip 1080p HEVC ()] Мичман37 Скачать
1 | 0
Фильмы [HD 720p, 1080p] (Хороший звук DUB, MVO) [ 9.66 GB ] Терминатор / The Terminator [1984 BDRip 1080p HEVC ()] Мичман37 Скачать
1 | 0
Сборники и Сиквелы (48-60 fps) [ 18.7 GB ] Терминатор: Антология / The Terminator: Antology [1984-2015 BDRip-AVC 60fps MVO] от R.G. HD-Films Tiberiumsun69 Скачать
1 | 0
Фильмы (Blu-ray, BD-Remux, HDDVD) [ 24.34 GB ] Терминатор / The Terminator [1984 BD Remux ] sander86 Скачать
1 | 0
Зарубежные сериалы [ 19.12 GB ] Терминатор: Хроники Сары Коннор / Битва за будущее / Terminator: The Sarah Connor Chronicles / Сезон: 1-2 / Серии: 1-31 из 31 [2008-2009 BDRip] Dub [REN-TV] Serejechka Скачать
1 | 0
Комиксы [ 43 MB ] Зак Уидон - The Terminator 2029 / Терминатор 2029 [2010CBR] oldGAMERu Скачать
1 | 0

28-11-2019 20:33  

Отключить всю рекламу на сайте

17-02-2015 14:21 Терминатор Скачать торрент  

классикаpb.wtf



17-02-2015 14:32 Терминатор Скачать торрент  

"у вас нехватка средств на счету, пополните счёт"pb.wtf



17-02-2015 14:48 Терминатор Скачать торрент  

сейчас фрилич до конца месяца скачка не в щетpb.wtf



17-02-2015 17:34 Терминатор Скачать торрент  

Спасибо. Пойдет в коллекциюpb.wtf



    Дорогой пользователь! Огромная просьба, поблагодарите релизера, оцените раздачу и оставьте свои комментарий, если Вы скачали Терминатор через торрент бесплатно!
    Комментировать посты могут только пользователи прошедшие не сложную регистрацию
    Показать сообщения:    

    Терминатор через торрент
    Скачать бесплатно Терминатор
    Терминатор скачать торрент
    Терминатор смотреть онлайн
    Cкачать фильм Терминатор бесплатно
    Терминатор скачать торрент в хорошем качестве
    Терминатор смотреть онлайн бесплатно в хорошем качестве


    Вы не можете начинать темы
    Вы не можете отвечать на сообщения
    Вы не можете редактировать свои сообщения
    Вы не можете удалять свои сообщения
    Вы не можете голосовать в опросах
    Вы не можете прикреплять файлы к сообщениям
    Вы можете скачивать файлы