Всегда рабочее зеркало без VPN и Proxy просто перед .vidak.icu напиши любое слово или цифру, Пример http://pcek.vidak.icu

MVO

2 сезон

1 сезон

1

1 сезон

iTunes

2 сезон

13

1 сезон

Распродажа

pack

Рекомендуем

Пиратка

30

ВАЖНО

RePack

MK11

RePack

jed

RePack

fifa19

RePack

RDR2

RePack

NEED FOR SPEED™ PAYBACK

Кинопоиск HD

6 сезон

 Острые козырьки 6 сезон

Все сериалы

все сериалы на PB.wtf

RePack

FAR CRY 5

Anonymous, нам критически не хватает 5601 руб. на оплату серверов и переферии за Апрель, помоги нам пожалуйста, вся надежда только на тебя. В благодарность мы отключим тебе всю рекламу на сайте!

×
  
Magnet ссылка

Терминатор: Да придёт спаситель / Terminator Salvation (МакДжи / McG) [2009, фантастика, боевик, триллер, драма, SATRip] [Театральная версия (Full Screen)] 4x[AVO] (Гаврилов, Володарский, Горчаков, Сербин) pb.wtf

Терминатор: Да придёт спаситель через торрент pb.wtf

Размер: 1.9 GB | Добавлен: 7 лет 2 мес. назад | Торрент скачан:104 раза
Смотреть онлайн Терминатор: Да придёт спаситель | Скачать    Ребята, помогите собрать деньги на оплату серверов!!!

27-02-2015 15:51 Терминатор: Да придёт спаситель Скачать торрент  

Терминатор: Да придёт спаситель / Терминатор 4: Спасение / Terminator Salvation
Год выпуска: 2009
Страна: США, Германия, Великобритания, Италия
Жанр: фантастика, боевик, триллер, драма
Продолжительность: 01:44:53
Перевод 1: Авторский (одноголосый, закадровый) [Андрей Гаврилов]
Перевод 2: Авторский (одноголосый, закадровый) [Леонид Володарский]
Перевод 3: Авторский (одноголосый, закадровый) [Василий Горчаков]
Перевод 4: Авторский (одноголосый, закадровый) [Юрий Сербин]
Cубтитры: нет

Режиссер: МакДжи / McG

В ролях: Кристиан Бэйл, Сэм Уортингтон, Мун Бладгуд, Хелена Бонем Картер, Антон Ельчин, Джадагрейс, Брайс Даллас Ховард, Коммон, Джейн Александр, Майкл Айронсайд

Описание: 2018 год. В мире наступила война с машинами. Джон Коннор — человек, чья судьба — возглавить Сопротивление электронному мозгу Скайнет и армии Терминаторов. Но в будущее, с верой в которое он возвращен, вклинивается таинственный Маркус Райт: незнакомец, чьи последние воспоминания рисуют камеру смертников.
Коннор должен понять, кто такой этот Маркус и с какой целью пожаловал к людям. И на фоне подготовки Скайнетом решающего удара, Коннор и Райт отправляются в путешествие, приводящее их в самую сердцевину взбунтовавшейся операционной системы, где открывается ужасная тайна, кроющаяся за потенциальным уничтожением человечества.



Качество видео: SATRip [спасибо allecs2010]
Формат видео: AVI
Видео кодек: XviD
Аудио кодек: AC3
Видео: 704x512 (1.38:1), 25 fps, XviD build 65 ~1787 kbps avg, 0.20 bit/pixel
Аудио#1: 48 kHz, AC3 Dolby Digital, 2/0 (L,R) ch, ~192 kbps [Гаврилов]
Аудио#2: 48 kHz, AC3 Dolby Digital, 2/0 (L,R) ch, ~192 kbps [Володарский] - отдельно
Аудио#3: 48 kHz, AC3 Dolby Digital, 2/0 (L,R) ch, ~192 kbps [Горчаков] - отдельно
Аудио#4: 48 kHz, AC3 Dolby Digital, 2/0 (L,R) ch, ~192 kbps [Сербин] - отдельно
За дорогу Володарского большое спасибо Wolf_Larsen, за остальные дороги, огромное спасибо всем причастным
Автор рипа --- JIuI3epIIyJIb
Полное имя : Терминатор 4 FS\Терминатор Да придет спаситель TFSVersion.avi
Формат : AVI
Формат/Информация : Audio Video Interleave
Размер файла : 1,46 Гбайт
Продолжительность : 1 ч. 44 м.
Общий поток : 1989 Кбит/сек
Программа кодирования : VirtualDubMod 1.5.10.2 (build 2540/release)
Библиотека кодирования : VirtualDubMod build 2540/release
Видео
Идентификатор : 0
Формат : MPEG-4 Visual
Профиль формата : Advanced Simple@L5
Параметр BVOP формата : 1
Параметр QPel формата : Нет
Параметр GMC формата : Без точки перехода
Параметр матрицы формата : Выборочная
Идентификатор кодека : XVID
Идентификатор кодека/Подсказка : XviD
Продолжительность : 1 ч. 44 м.
Битрейт : 1787 Кбит/сек
Ширина : 704 пикселя
Высота : 512 пикселей
Соотношение сторон : 1,375
Частота кадров : 25,000 кадров/сек
Цветовое пространство : YUV
Субдискретизация насыщенности : 4:2:0
Битовая глубина : 8 бит
Тип развёртки : Прогрессивная
Метод сжатия : С потерями
Бит/(Пиксели*Кадры) : 0.198
Размер потока : 1,31 Гбайт (90%)
Библиотека кодирования : XviD 65
Аудио
Идентификатор : 1
Формат : AC-3
Формат/Информация : Audio Coding 3
Расширение режима : CM (complete main)
Параметр Endianness формата : Big
Идентификатор кодека : 2000
Продолжительность : 1 ч. 44 м.
Вид битрейта : Постоянный
Битрейт : 192 Кбит/сек
Каналы : 2 канала
Расположение каналов : Front: L R
Частота : 48,0 КГц
Битовая глубина : 16 бит
Метод сжатия : С потерями
Размер потока : 144 Мбайт (10%)
Выравнивание : Разделение по промежуткам
Продолжительность промежутка : 40 мс. (1,00 видеокадр)
Время предзагрузки промежутка : 500 мс.
pb.wtf



Скачать Терминатор: Да придёт спаситель через торрент http://i67.fastpic.ru/big/2015/0207/91/29afd21e9ae4de1ab69eaf89b6d64291.jpg Скачать, смотреть онлайн Терминатор: Да придёт спаситель бесплантно в хорошем качестве Описание: 2018 год. В мире наступила война с машинами. Джон Коннор — человек, чья судьба — возглавить Сопротивление электронному мозгу ... 10 10 12
Торрент: Зарегистрирован [2015-02-27 16:01] · скачан: 104 раз
Статус: √ проверено
Размер: 1.9 GB
Как cкачать? Как скачать Терминатор: Да придёт спаситель через торрент | UTorrent

% Раздел Тема Автор DL S | L
Ultra HD (UHD: 2K, 4K, 8K) — видео сверхвысокой чёткости [ 27.89 GB ] Терминатор: Да придёт спаситель / Terminator Salvation [2009 UHD BDRip 2160p] [SDR] DUB [] bober100 Скачать
1 | 0
Ultra HD (UHD: 2K, 4K, 8K) — видео сверхвысокой чёткости [ 15.34 GB ] Терминатор: Да придёт спаситель / Terminator Salvation [2009 UHD BDRip 2160p] DUB [] bober100 Скачать
1 | 1
Ultra HD (UHD: 2K, 4K, 8K) — видео сверхвысокой чёткости [ 41.13 GB ] Терминатор: Да придёт спаситель / Terminator Salvation [2009 UHD BDRemux 2160p] DUB [] bober100 Скачать
2 | 0
Фильмы без перевода [ 53.12 GB ] Терминатор: Да придёт спаситель / Terminator Salvation [2009 UHD Blu-ray EUR 2160p] RUS SUB sheker187 Скачать
1 | 0
Фильмы [HD 720p, 1080p] (Хороший звук DUB, MVO) [ 6.42 GB ] Терминатор: Да придёт спаситель / Terminator Salvation [2009 BDRip 1080p HEVC ()] [Director's Cut] Мичман37 Скачать
1 | 0
Фильмы 2009 [ 1.46 GB ] Терминатор: Да придёт спаситель / Terminator Salvation [2009 ... HDRip] Venxxx Скачать
1 | 0
Фильмы [HD 720p, 1080p] (Хороший звук DUB, MVO) [ 5.84 GB ] Терминатор: Да придёт спаситель / Terminator Salvation [2009 BDRip DUB ] VintMosina Скачать
1 | 0

28-11-2019 20:33  

Отключить всю рекламу на сайте

    Дорогой пользователь! Огромная просьба, поблагодарите релизера, оцените раздачу и оставьте свои комментарий, если Вы скачали Терминатор: Да придёт спаситель через торрент бесплатно!
    Комментировать посты могут только пользователи прошедшие не сложную регистрацию
    Показать сообщения:    

    Терминатор: Да придёт спаситель через торрент
    Скачать бесплатно Терминатор: Да придёт спаситель
    Терминатор: Да придёт спаситель скачать торрент
    Терминатор: Да придёт спаситель смотреть онлайн
    Cкачать фильм Терминатор: Да придёт спаситель бесплатно
    Терминатор: Да придёт спаситель скачать торрент в хорошем качестве
    Терминатор: Да придёт спаситель смотреть онлайн бесплатно в хорошем качестве


    Вы не можете начинать темы
    Вы не можете отвечать на сообщения
    Вы не можете редактировать свои сообщения
    Вы не можете удалять свои сообщения
    Вы не можете голосовать в опросах
    Вы не можете прикреплять файлы к сообщениям
    Вы можете скачивать файлы