Всегда рабочее зеркало без VPN и Proxy просто перед .vidak.icu напиши любое слово или цифру, Пример http://sgt3.vidak.icu

MVO

Лицензия

1 сезон

1

1 сезон

iTunes

1 сезон

13

1 сезон

Deluxe

pack

Рекомендуем

Repack

30

ВАЖНО

RePack

MK11

RePack

jed

RePack

fifa19

RePack

RDR2

RePack

NEED FOR SPEED™ PAYBACK

Кинопоиск HD

6 сезон

 Острые козырьки 6 сезон

Все сериалы

все сериалы на PB.wtf

RePack

FAR CRY 5
  
Magnet ссылка

Звездная карта / Maps to the Stars (Дэвид Кроненберг) [2014 г., драма, HDRip, Профессиональный многоголосый "Лицензия R5"] pb.wtf

Звездная карта через торрент pb.wtf

Размер: 2.19 GB | Добавлен: 6 лет 11 мес. назад | Торрент скачан:243 раза
Смотреть онлайн Звездная карта | Скачать    Ребята, помогите собрать деньги на оплату серверов!!!

16-03-2015 17:31 Звездная карта Скачать торрент  

Звездная карта / Maps to the Stars
Год выпуска: 2014
Страна: Канада,США,Германия,Франция / Prospero Pictures, Sentient Entertainment, SBS Productions
Жанр: драма
Продолжительность: 01:47:17
Перевод: Профессиональный многоголосый (Лицензия R5)

Режиссер: Дэвид Кроненберг

IMDB 6.40 (16 070)


В ролях: Джулианна Мур, Миа Васиковска, Оливия Уильямс, Эван Бёрд, Сара Гадон, Нив Уилсон, Доун Гринхалг, Джон Кьюсак, Роберт Паттинсон, Кьяра Гласко

Описание: Место действия — два голливудских дома. В одном живет стареющая актриса, которая надеется сыграть роль собственной давно погибшей матери — легенды черно-белого кино. Другой особняк — резиденция сверхуспешного психотерапевта, его жены и их сына — 13-летнего миллионера, наркомана и звезды. В оба дома проникает девушка из Флориды, которая подружилась в твиттере с Кэрри Фишер и надеется с ее помощью покорить Лос-Анджелес.

Качество: HDRip
Формат: AVI
Видео кодек: XviD
Аудио кодек: AC3
Видео: 720x384 (1.88:1), 25 fps, XviD build 50 ~2473 kbps avg, 0.36 bit/pixel
Аудио: 48 kHz, AC3 Dolby Digital, 3/2 (L,C,R,l,r) + LFE ch, ~448 kbps

скриншот   скриншот   скриншот   скриншот   скриншот   скриншот   скриншот   скриншот   скриншот   скриншот  

Общее
Полное имя : F:\кино\Звездная карта.2014.HDRip.avi
Формат : AVI
Формат/Информация : Audio Video Interleave
Профиль формата : OpenDML
Размер файла : 2,19 Гбайт
Продолжительность : 1 ч. 47 м.
Общий поток : 2928 Кбит/сек
Программа кодирования : VirtualDubMod 1.5.10.3 | www.virtualdub-fr.org || (build 2550/release)
Библиотека кодирования : VirtualDubMod build 2550/release

Видео
Идентификатор : 0
Формат : MPEG-4 Visual
Профиль формата : Advanced [email protected]
Параметр BVOP формата : 2
Параметр QPel формата : Нет
Параметр GMC формата : Без точки перехода
Параметр матрицы формата : Default (H.263)
Идентификатор кодека : XVID
Идентификатор кодека/Подсказка : XviD
Продолжительность : 1 ч. 47 м.
Битрейт : 2468 Кбит/сек
Ширина : 720 пикселей
Высота : 384 пикселя
Соотношение сторон : 1,85:1
Частота кадров : 25,000 кадров/сек
Цветовое пространство : YUV
Субдискретизация насыщенности : 4:2:0
Битовая глубина : 8 бит
Тип развёртки : Прогрессивная
Метод сжатия : С потерями
Бит/(Пиксели*Кадры) : 0.357
Размер потока : 1,85 Гбайт (84%)
Библиотека кодирования : XviD 1.2.1 (UTC 2008-12-04)

Аудио
Идентификатор : 1
Формат : AC-3
Формат/Информация : Audio Coding 3
Расширение режима : CM (complete main)
Параметр Endianness формата : Big
Идентификатор кодека : 2000
Продолжительность : 1 ч. 47 м.
Вид битрейта : Постоянный
Битрейт : 448 Кбит/сек
Каналы : 6 каналов
Расположение каналов : Front: L C R, Side: L R, LFE
Частота : 48,0 КГц
Битовая глубина : 16 бит
Метод сжатия : С потерями
Размер потока : 344 Мбайт (15%)
Выравнивание : Разделение по промежуткам
Продолжительность промежутка : 40 мс. (1,00 видеокадр)
Время предзагрузки промежутка : 500 мс.

pb.wtf



Скачать Звездная карта через торрент https://pic1.kartinco.top/images/10/ed4a5.jpg Скачать, смотреть онлайн Звездная карта бесплантно в хорошем качестве Описание: Место действия — два голливудских дома. В одном живет стареющая актриса, которая надеется сыграть роль собственной давно погибшей ... 8.3 10 16
Торрент: Зарегистрирован [2015-08-05 08:35] · скачан: 243 раз
Статус: √ проверено
Размер: 2.19 GB
Как cкачать? Как скачать Звездная карта через торрент | UTorrent

% Раздел Тема Автор DL S | L
Фильмы 2014 [DVDrip, WEB-DLRip, HDrip] [ 1.36 GB ] Звездная карта / Maps to the Stars [2014 Германия BDRip] MVO / Ворон Скачать
1 | 0
Фильмы с авторской озвучкой [ 10.71 GB ] Звёздная карта / Maps to the stars [2014 BDRip 1080p] AVO msltel Скачать
1 | 0
Фильмы с авторской озвучкой [ 3.64 GB ] Звёздная карта / Maps to the stars [2014 BDRip 720p] AVO msltel Скачать
1 | 0
Фильмы с авторской озвучкой [ 6.51 GB ] Звездная карта / Maps to the Stars [2014 BDRip 720p Авторский ] кэп Скачать
1 | 0
Фильмы с авторской озвучкой [ 1.37 GB ] Звездная карта / Maps to the Stars [2014 Германия HDRip Авторский [С.Визгунов] Ворон Скачать
1 | 0

28-11-2019 20:33  

Отключить всю рекламу на сайте

17-03-2015 04:15 Звездная карта Скачать торрент  

ничего так кинишкоpb.wtf



22-03-2015 11:27 Звездная карта Скачать торрент  

бред, после которого Джулианна Мур упала в моих глазахpb.wtf



05-08-2015 08:46 Звездная карта Скачать торрент  

Фильм просто.....вообщем время зря потеряетеpb.wtf



05-08-2015 10:26 Звездная карта Скачать торрент  

замороченный фильмец-на любителяpb.wtf



    Дорогой пользователь! Огромная просьба, поблагодарите релизера, оцените раздачу и оставьте свои комментарий, если Вы скачали Звездная карта через торрент бесплатно!
    Комментировать посты могут только пользователи прошедшие не сложную регистрацию
    Показать сообщения:    

    Звездная карта через торрент
    Скачать бесплатно Звездная карта
    Звездная карта скачать торрент
    Звездная карта смотреть онлайн
    Cкачать фильм Звездная карта бесплатно
    Звездная карта скачать торрент в хорошем качестве
    Звездная карта смотреть онлайн бесплатно в хорошем качестве


    Вы не можете начинать темы
    Вы не можете отвечать на сообщения
    Вы не можете редактировать свои сообщения
    Вы не можете удалять свои сообщения
    Вы не можете голосовать в опросах
    Вы не можете прикреплять файлы к сообщениям
    Вы можете скачивать файлы