Всегда рабочее зеркало без VPN и Proxy просто перед .vidak.icu напиши любое слово или цифру, Пример http://drbe.vidak.icu

MVO

2 сезон

2 сезон

1

1 сезон

iTunes

2 сезон

13

1 сезон

Deluxe

pack

Рекомендуем

Пиратка

30

ВАЖНО

RePack

MK11

RePack

jed

RePack

fifa19

RePack

RDR2

RePack

NEED FOR SPEED™ PAYBACK

Кинопоиск HD

6 сезон

 Острые козырьки 6 сезон

Все сериалы

все сериалы на PB.wtf

RePack

FAR CRY 5

Anonymous, нам критически не хватает 5601 руб. на оплату серверов и переферии за Апрель, помоги нам пожалуйста, вся надежда только на тебя. В благодарность мы отключим тебе всю рекламу на сайте!

×
  
Magnet ссылка

Бёрдмэн / Birdman (Алехандро Гонсалес Иньярриту / Alejandro González Iñárritu) [2014, Драма, комедия, BDRip] [AVO] (Ю.Сербин) pb.wtf

Бёрдмэн через торрент pb.wtf

Размер: 1.46 GB | Добавлен: 7 лет 1 мес. назад | Торрент скачан:170 раз
Смотреть онлайн Бёрдмэн | Скачать    Ребята, помогите собрать деньги на оплату серверов!!!

26-03-2015 07:23 Бёрдмэн Скачать торрент  

Бёрдмэн / Birdman
Год выпуска: 2014
Выпущено: США, Канада / New Regency Pictures
Жанр: драма, комедия
Продолжительность: 01:59:17
Перевод: Авторский (одноголосный) [Ю.Сербин]

Cубтитры: нет
Режиссер:
Алехандро Гонсалес Иньярриту / Alejandro González Iñárritu
В ролях:
Майкл Китон (Riggan), Эдвард Нортон (Mike), Эмма Стоун (Sam), Наоми Уоттс (Lesley), Зак Галифианакис (Jake), Андреа Райзборо (Laura), Эми Райан (Sylvia), Линдси Дункан (Tabitha), Дэмиэн Янг (Gabriel), Джереми Шамос (Ralph), Кенни Чин (Korean Grocer)

Описание:
В центре сюжета бывший актер, некогда сыгравший роль популярного супергероя Бёрдмэна, и теперь, переступая через свое эго, он решает принять участие в новой бродвейской постановке с целью вернуть себе былую славу, блеск и величие.

|

Качество: BDRip [исх. BDRemux | 1080p]
Формат: AVI
Видео кодек: XviD
Аудио кодек: AC3
Видео: 704x384 (1.83:1), 23.976 fps, XviD build 73 ~1356 kbps avg, 0.21 bit/pixel
Аудио: 48 kHz, AC3 Dolby Digital, 3/2 (L,C,R,l,r) + LFE ch, ~384.00 kbps avg
Видеоряд dalemake -- Спасибо!

Код:

General
Complete name                    : E:\INTERNET\Birdman.2014.BDRip.[AVO](Serbin).Km.avi
Format                           : AVI
Format/Info                      : Audio Video Interleave
File size                        : 1.46 GiB
Duration                         : 1h 59mn
Overall bit rate                 : 1 750 Kbps
Writing application              : VirtualDubMod 1.5.10.3 (build 2550/release)
Writing library                  : VirtualDubMod build 2550/release

Video
ID                               : 0
Format                           : MPEG-4 Visual
Format profile                   : Advanced Simple@L5
Format settings, BVOP            : 1
Format settings, QPel            : No
Format settings, GMC             : No warppoints
Format settings, Matrix          : Custom
Codec ID                         : XVID
Codec ID/Hint                    : XviD
Duration                         : 1h 59mn
Bit rate                         : 1 357 Kbps
Width                            : 704 pixels
Height                           : 384 pixels
Display aspect ratio             : 16:9
Frame rate                       : 23.976 fps
Color space                      : YUV
Chroma subsampling               : 4:2:0
Bit depth                        : 8 bits
Scan type                        : Progressive
Compression mode                 : Lossy
Bits/(Pixel*Frame)               : 0.209
Stream size                      : 1.13 GiB (78%)
Writing library                  : XviD 73

Audio
ID                               : 1
Format                           : AC-3
Format/Info                      : Audio Coding 3
Mode extension                   : CM (complete main)
Codec ID                         : 2000
Duration                         : 1h 59mn
Bit rate mode                    : Constant
Bit rate                         : 384 Kbps
Channel(s)                       : 6 channels
Channel positions                : Front: L C R, Side: L R, LFE
Sampling rate                    : 48.0 KHz
Bit depth                        : 16 bits
Compression mode                 : Lossy
Stream size                      : 328 MiB (22%)
Alignment                        : Split accross interleaves
Interleave, duration             : 42 ms (1.00 video frame)
Interleave, preload duration     : 500 ms


pb.wtf



Скачать Бёрдмэн через торрент http://i68.fastpic.ru/big/2015/0311/72/d10e4a3a88587f77fabfc3db4c02bd72.png Скачать, смотреть онлайн Бёрдмэн бесплантно в хорошем качестве Описание:В центре сюжета бывший актер, некогда сыгравший роль популярного супергероя Бёрдмэна, и теперь, переступая через свое эго, он ... 8.7 10 6
Торрент: Зарегистрирован [2015-03-26 07:23] · скачан: 170 раз
Статус: √ проверено
Размер: 1.46 GB
Как cкачать? Как скачать Бёрдмэн через торрент | UTorrent

% Раздел Тема Автор DL S | L
Фильмы [HD 720p, 1080p] (Хороший звук DUB, MVO) [ 7.04 GB ] Бердмэн / Birdman [2014 BDRip 1080p HEVC ] 2xAVO+DVO+DUB [] bober100 Скачать
1 | 0
Фильмы [HD 720p, 1080p] (Хороший звук DUB, MVO) [ 7.29 GB ] Бёрдмэн / Birdman or [2014 BDRip 720p] DUB DVO AVO potroks Скачать
1 | 0
Фильмы (BDRip, HDrip-AVC) (48-60 fps) [ 3.95 GB ] Бёрдмэн / Birdman: Or [2014 BDRip-AVC 60fps ] от R.G. HD-Films Tiberiumsun69 Скачать
1 | 0
Фильмы [HD 720p, 1080p] (Хороший звук DUB, MVO) [ 21.3 GB ] Бёрдмэн / Birdman: Or [2014 BDRip 1080p] Dub + DVO + 3xAVO + MVO + Original + Sub Seedtank Скачать
1 | 0
Фильмы (Blu-ray, BD-Remux, HDDVD) [ 36.09 GB ] Бёрдмэн / Birdman [2014 Blu-Ray Remux 1080p] DVO [Кубик в Кубе] + Original + Subs от R.G. PiratFilms Messa-fan Скачать
1 | 0
Фильмы 2014 [DVDrip, WEB-DLRip, HDrip] [ 745 MB ] Бёрдмэн / Birdman [2014 BDRip] Dub SMJ' Скачать
1 | 0
Фильмы 2014 [DVDrip, WEB-DLRip, HDrip] [ 1.37 GB ] Бёрдмэн / Birdman [2014 HDRip / ] Ворон Скачать
1 | 0

28-11-2019 20:33  

Отключить всю рекламу на сайте

26-03-2015 16:30 Бёрдмэн Скачать торрент  

семь часов ожидания. надеюсь оно того стоило. но автору однозначно спасибоpb.wtf



    Дорогой пользователь! Огромная просьба, поблагодарите релизера, оцените раздачу и оставьте свои комментарий, если Вы скачали Бёрдмэн через торрент бесплатно!
    Комментировать посты могут только пользователи прошедшие не сложную регистрацию
    Показать сообщения:    

    Бёрдмэн через торрент
    Скачать бесплатно Бёрдмэн
    Бёрдмэн скачать торрент
    Бёрдмэн смотреть онлайн
    Cкачать фильм Бёрдмэн бесплатно
    Бёрдмэн скачать торрент в хорошем качестве
    Бёрдмэн смотреть онлайн бесплатно в хорошем качестве


    Вы не можете начинать темы
    Вы не можете отвечать на сообщения
    Вы не можете редактировать свои сообщения
    Вы не можете удалять свои сообщения
    Вы не можете голосовать в опросах
    Вы не можете прикреплять файлы к сообщениям
    Вы можете скачивать файлы