Ссылка на приватное зеркало нашего сайта всего за 1$. Внимание количество ограничено!!!

2 сезон

iTunes

1 сезон

1

2 сезон

2 сезон

iTunes

1 сезон

RePack

30

Ultimate

ВАЖНО

ИГРА 18+

pack

RePack

MK11
pack

Забери бонус

RePack

jed

!!Акция!!

Alien_Rage

RePack

fifa19

RePack

Assassins Creed: Odyssey

RePack

NEED FOR SPEED™ PAYBACK

4 сезон

9 сезон

Бесстыжие 9 сезон

Все сериалы

все сериалы на PB.wtf

RePack

FAR CRY 5
  

Гуляка / Le cavaleur (Филипп де Брока) [1979, комедия, BDRip 1080p] MVO pb.wtf

Гуляка через торрент pb.wtf

Размер: 13.55 GB | Добавлен: 5 лет 5 мес. назад | Торрент скачан:8 раз
Скачать  

21-06-2015 11:15 Гуляка Скачать торрент  


Название: Гуляка
Оригинальное название: Le cavaleur
Год выпуска: 1979
Страна: Франция
Жанр: комедия
Продолжительность: 01:41:27
Перевод: профессиональный многоголосый

Режиссёр: Филипп де Брока

В ролях: Жан Рошфор, Николь Гарсиа, Жан-Клод Вентура, Анни Жирардо, Люсьенн Легран, Даниэль Даррьё, Катрин Альрик, Кароль Ликсон, Жан Дезайи, Лиля Кедрова

Описание: Талантливый пианист и стареющий ловелас Эдуард, несмотря на свой возраст, пользуется успехом у женщин. Бесконечная вереница сменяющих друг друга увлечений, концертов, квинтетов, дуэтов и маленьких ночных репетиций. Подобный образ жизни не оставляет Эдуарду времени на то, чтобы уделить внимание жене Мари-Франс и маленьким дочкам. Неудивительно, что в один прекрасный момент, устав от такой жизни, Мари-Франс решает оставить своего непутевого супруга...



Качество: BDRip 1080p Сравнение с исходником
Формат: MKV
Видео кодек: H.264
Аудио кодек: AC3, DTS
Видео: MPEG-4 AVC, 17 Mбит/с, 1800x1080, 24 кадра/с
Аудио 1: русский, AC3, 192 kbps, 2 ch, 48 kHz [профессиональный многоголосый]
Аудио 2: французский, DTS, 1509 kbps, 2 ch, 48 kHz [оригинал]
Общее
Уникальный идентификатор : 228941855025202435774087790413735721307 (0xAC3C98EFF87568738778B0215D9EF95B)
Полное имя : D:VideoГуляка.1979.BDRip.1080p.mkv
Формат : Matroska
Версия формата : Version 4 / Version 2
Размер файла : 13,6 Гбайт
Продолжительность : 1 ч. 41 м.
Общий поток : 19,1 Мбит/сек
Название фильма : BDRip -- STarankov
Дата кодирования : UTC 2015-06-14 06:27:55
Программа кодирования : mkvmerge v7.9.0 ('Birds') 64bit
Библиотека кодирования : libebml v1.3.1 + libmatroska v1.4.2
DURATION : 01:41:26.251000000
NUMBER_OF_FRAMES : 570586
NUMBER_OF_BYTES : 1148019096
_STATISTICS_WRITING_APP : mkvmerge v7.9.0 ('Birds') 64bit
_STATISTICS_WRITING_DATE_UTC : 2015-06-14 06:27:55
_STATISTICS_TAGS : BPS DURATION NUMBER_OF_FRAMES NUMBER_OF_BYTES

Видео
Идентификатор : 1
Формат : AVC
Формат/Информация : Advanced Video Codec
Профиль формата : High@L4.1
Параметр CABAC формата : Да
Параметр ReFrames формата : 4 кадра
Идентификатор кодека : V_MPEG4/ISO/AVC
Продолжительность : 1 ч. 41 м.
Битрейт : 17,0 Мбит/сек
Ширина : 1800 пикселей
Высота : 1080 пикселей
Соотношение сторон : 1,667
Режим частоты кадров : Постоянный
Частота кадров : 24,000 кадра/сек
Цветовое пространство : YUV
Субдискретизация насыщенности : 4:2:0
Битовая глубина : 8 бит
Тип развёртки : Прогрессивная
Бит/(Пиксели*Кадры) : 0.365
Размер потока : 12,1 Гбайт (89%)
Библиотека кодирования : x264 core 146 r2538 121396c
Настройки программы : cabac=1 / ref=4 / deblock=1:-1:-1 / analyse=0x3:0x113 / me=umh / subme=10 / psy=1 / psy_rd=1.00:0.15 / mixed_ref=1 / me_range=32 / chroma_me=1 / trellis=2 / 8x8dct=1 / cqm=0 / deadzone=21,11 / fast_pskip=1 / chroma_qp_offset=-3 / threads=6 / lookahead_threads=1 / sliced_threads=0 / nr=0 / decimate=1 / interlaced=0 / bluray_compat=0 / constrained_intra=0 / bframes=12 / b_pyramid=2 / b_adapt=2 / b_bias=0 / direct=1 / weightb=1 / open_gop=0 / weightp=2 / keyint=230 / keyint_min=23 / scenecut=40 / intra_refresh=0 / rc_lookahead=40 / rc=crf / mbtree=0 / crf=20.0 / qcomp=0.60 / qpmin=0 / qpmax=69 / qpstep=4 / vbv_maxrate=40000 / vbv_bufsize=50000 / crf_max=0.0 / nal_hrd=none / filler=0 / ip_ratio=1.40 / pb_ratio=1.30 / aq=1:1.00
Язык : French
Default : Да
Forced : Нет
DURATION : 01:41:27.250000000
NUMBER_OF_FRAMES : 146094
NUMBER_OF_BYTES : 13255427738
_STATISTICS_WRITING_APP : mkvmerge v7.9.0 ('Birds') 64bit
_STATISTICS_WRITING_DATE_UTC : 2015-06-14 06:27:55
_STATISTICS_TAGS : BPS DURATION NUMBER_OF_FRAMES NUMBER_OF_BYTES

Аудио #1
Идентификатор : 2
Формат : AC-3
Формат/Информация : Audio Coding 3
Расширение режима : CM (complete main)
Параметр Endianness формата : Big
Идентификатор кодека : A_AC3
Продолжительность : 1 ч. 41 м.
Вид битрейта : Постоянный
Битрейт : 192 Кбит/сек
Каналы : 2 канала
Расположение каналов : Front: L R
Частота : 48,0 КГц
Битовая глубина : 16 бит
Метод сжатия : С потерями
Размер потока : 139 Мбайт (1%)
Заголовок : MVO
Язык : Russian
Default : Да
Forced : Нет

Аудио #2
Идентификатор : 3
Формат : DTS
Формат/Информация : Digital Theater Systems
Режим : 16
Параметр Endianness формата : Big
Идентификатор кодека : A_DTS
Продолжительность : 1 ч. 41 м.
Вид битрейта : Постоянный
Битрейт : 1509 Кбит/сек
Каналы : 2 канала
Расположение каналов : Front: L R
Частота : 48,0 КГц
Битовая глубина : 16 бит
Метод сжатия : С потерями
Размер потока : 1,07 Гбайт (8%)
Заголовок : Original
Язык : French
Default : Нет
Forced : Нет
pb.wtf



Скачать Гуляка через торрент http://i72.fastpic.ru/big/2015/0617/b0/c9337e5f29e108b7ebcda6ee825bccb0.jpg Скачать фильм Гуляка через торрент бесплантно в хорошем качестве Описание: Талантливый пианист и стареющий ловелас Эдуард, несмотря на свой возраст, пользуется успехом у женщин. Бесконечная вереница ... 8 10 1
Info! Золотая раздача, скачанное не засчитывается.
Торрент: Зарегистрирован [2015-06-21 11:15] · скачан: 8 раз
Статус: √ проверено
Размер: 13.55 GB
Как cкачать? Как скачать Гуляка через торрент | qTorrent

% Раздел Тема Автор DL S | L
Фильмы [HD 720p, 1080p] (Хороший звук DUB, MVO) [ 4.51 GB ] Гуляка / Le cavaleur [1979 BDRip 720p] MVO msltel Скачать
1 | 0
Фильмы до 2000 г. [ 2.45 GB ] Гуляка / Le cavaleur [1979 BDRip AVC] MVO msltel Скачать
1 | 0

28-11-2019 20:33  

Отключить всю рекламу на сайте

    Дорогой пользователь! Огромная просьба, поблагодарите релизера, оцените раздачу и оставьте свои комментарий, если Вы скачали Гуляка через торрент бесплатно! Внесите свою лепту в развитие PiratBit!
    Комментировать посты могут только пользователи прошедшие не сложную регистрацию
    Показать сообщения:    

    Гуляка через торрент
    Скачать бесплатно Гуляка
    Гуляка скачать торрент
    Гуляка смотреть онлайн
    Cкачать фильм Гуляка бесплатно
    Гуляка скачать торрент в хорошем качестве
    Гуляка смотреть онлайн бесплатно в хорошем качестве


    Вы не можете начинать темы
    Вы не можете отвечать на сообщения
    Вы не можете редактировать свои сообщения
    Вы не можете удалять свои сообщения
    Вы не можете голосовать в опросах
    Вы не можете прикреплять файлы к сообщениям
    Вы можете скачивать файлы