Ссылка на приватное зеркало нашего сайта всего за 1$. Внимание количество ограничено!!!

2 сезон

iTunes

1 сезон

1

2 сезон

2 сезон

iTunes

1 сезон

RePack

30

Ultimate

ВАЖНО

ИГРА 18+

pack

RePack

MK11
pack

Забери бонус

RePack

jed

!!Акция!!

Alien_Rage

RePack

fifa19

RePack

Assassins Creed: Odyssey

RePack

NEED FOR SPEED™ PAYBACK

4 сезон

9 сезон

Бесстыжие 9 сезон

Все сериалы

все сериалы на PB.wtf

RePack

FAR CRY 5
  

Из машины / Ex Machina (Алекс Гарленд / Alex Garland) [2014, Великобритания, фантастика, триллер, драма, BDRip-AVC 60fps, Дубляж] от R.G. HD-Films pb.wtf

Из машины через торрент pb.wtf

Размер: 3.36 GB | Добавлен: 5 лет 5 мес. назад | Торрент скачан:578 раз
Скачать  

22-06-2015 11:42 Из машины Скачать торрент  


Название: Из машины
Оригинальное название: Ex Machina
Год выпуска: 2014
Страна: Великобритания
Жанр: фантастика, триллер, драма
Продолжительность: 01:48:00
Перевод: Дубляж
Субтитры: русские (Форсированные), русские (Полные), английские (Полные)
Режиссер: Алекс Гарленд / Alex Garland
В ролях: Донал Глисон (Caleb), Алисия Викандер (Ava), Оскар Айзек (Nathan), Соноя Мидзуно (Kyoko), Кори Джонсон (Jay), Клер Шелби (Lily), Симара А. Темплмен (Jasmine), Gana Bayarsaikhan (Jade), Тиффани Писани (Katya), Элина Алминас (Amber), Челси Ли (Office Girl, в титрах не указана), Рамзан Миа (Secretary, в титрах не указан)
Описание:
В центре сюжета - молодой человек, которого нанимает миллиардер, сделавший состояние на высокотехнологичных разработках. Задача работника - провести неделю в удаленном местечке, тестируя женщину-робота с искусственным интеллектом.
Рейтинг
kinopoisk.ru: 7.347 (22 216)
imdb.com: 7.80 (105 644)
MPAA: R - Лицам до 17 лет обязательно присутствие взрослого
Качество: BDRip-AVC 60fps
Формат: MKV
Видео кодек: AVC
Аудио кодек:AC3
Видео: AVC, 1024x432 (2.35:1), 4000 kbps, 59,940 fps, 0,151 bpp
Аудио: русский / AC3 / 5.1 / 48 kHz / 448 kbps / 16 bit |Дубляж|
Навигация по главам: есть

General
Unique ID : 182456880847571060099384049973306951425 (0x8943EAC307089CDF89BA413A17218701)
Complete name : A:\Фильмы\BDRip-avc\Из машины BDRip-AVC 60fps R.G. HD-Films.mkv
Format : Matroska
Format version : Version 4 / Version 2
File size : 3.36 GiB
Duration : 1h 48mn
Overall bit rate : 4 451 Kbps
Movie name : Tiberiumsun69
Encoded date : UTC 2015-06-22 11:07:35
Writing application : mkvmerge v7.9.0 ('Birds') 64bit
Writing library : libebml v1.3.1 + libmatroska v1.4.2
Attachment : Yes

Video
ID : 1
Format : AVC
Format/Info : Advanced Video Codec
Format profile : High@L4.1
Format settings, CABAC : Yes
Format settings, ReFrames : 4 frames
Codec ID : V_MPEG4/ISO/AVC
Duration : 1h 48mn
Bit rate : 4 000 Kbps
Width : 1 024 pixels
Height : 432 pixels
Display aspect ratio : 2.35:1
Frame rate : 59.940 fps
Color space : YUV
Chroma subsampling : 4:2:0
Bit depth : 8 bits
Scan type : Progressive
Bits/(Pixel*Frame) : 0.151
Stream size : 2.95 GiB (88%)
Title : Tiberiumsun69
Writing library : x264 core 146 r2538 121396c
Encoding settings : cabac=1 / ref=4 / deblock=1:0:0 / analyse=0x3:0x113 / me=umh / subme=9 / psy=1 / psy_rd=1.00:0.10 / mixed_ref=1 / me_range=32 / chroma_me=1 / trellis=2 / 8x8dct=1 / cqm=0 / deadzone=21,11 / fast_pskip=0 / chroma_qp_offset=-3 / threads=12 / lookahead_threads=3 / sliced_threads=0 / nr=0 / decimate=1 / interlaced=0 / bluray_compat=0 / constrained_intra=0 / bframes=16 / b_pyramid=2 / b_adapt=2 / b_bias=0 / direct=3 / weightb=1 / open_gop=0 / weightp=2 / keyint=600 / keyint_min=59 / scenecut=40 / intra_refresh=0 / rc_lookahead=60 / rc=2pass / mbtree=1 / bitrate=4000 / ratetol=1.0 / qcomp=0.60 / qpmin=0 / qpmax=69 / qpstep=4 / cplxblur=20.0 / qblur=0.5 / vbv_maxrate=50000 / vbv_bufsize=62500 / nal_hrd=none / filler=0 / ip_ratio=1.40 / aq=1:1.00
Language : English
Default : Yes
Forced : No

Audio
ID : 2
Format : AC-3
Format/Info : Audio Coding 3
Mode extension : CM (complete main)
Codec ID : A_AC3
Duration : 1h 48mn
Bit rate mode : Constant
Bit rate : 448 Kbps
Channel(s) : 6 channels
Channel positions : Front: L C R, Side: L R, LFE
Sampling rate : 48.0 KHz
Bit depth : 16 bits
Compression mode : Lossy
Stream size : 346 MiB (10%)
Title : Дубляж
Language : Russian
Default : Yes
Forced : No

Text #1
ID : 3
Format : UTF-8
Codec ID : S_TEXT/UTF8
Codec ID/Info : UTF-8 Plain Text
Title : Форсированные
Language : Russian
Default : Yes
Forced : No

Text #2
ID : 4
Format : UTF-8
Codec ID : S_TEXT/UTF8
Codec ID/Info : UTF-8 Plain Text
Title : Полные
Language : Russian
Default : No
Forced : No

Text #3
ID : 5
Format : UTF-8
Codec ID : S_TEXT/UTF8
Codec ID/Info : UTF-8 Plain Text
Title : Полные
Language : English
Default : No
Forced : No

Menu
00:00:00.000 : en:Chapter 01
00:04:34.940 : en:Chapter 02
00:11:16.634 : en:Chapter 03
00:15:08.157 : en:Chapter 04
00:23:38.750 : en:Chapter 05
00:31:57.999 : en:Chapter 06
00:36:05.162 : en:Chapter 07
00:40:26.756 : en:Chapter 08
00:45:56.377 : en:Chapter 09
00:53:28.953 : en:Chapter 10
01:00:26.079 : en:Chapter 11
01:04:01.253 : en:Chapter 12
01:07:19.076 : en:Chapter 13
01:13:22.021 : en:Chapter 14
01:16:56.110 : en:Chapter 15
01:21:36.515 : en:Chapter 16
01:27:36.832 : en:Chapter 17
01:32:54.149 : en:Chapter 18
01:38:51.006 : en:Chapter 19
01:42:26.931 : en:Chapter 20
01:48:00.640 : en:Chapter 21
Просьба к переливающим на другие сайты, в оформлении указывайте пожалуйста авторство группы R.G. HD-Films
Поблагодарить релизера! Авторская группа в ВК
pb.wtf



Скачать Из машины через торрент http://i72.fastpic.ru/big/2015/0622/c5/215ee2094010b587e3bc1385f21060c5.png Скачать фильм Из машины через торрент бесплантно в хорошем качестве Описание: В центре сюжета - молодой человек, которого нанимает миллиардер, сделавший состояние на высокотехнологичных разработках. Задача ... 9.8 10 21
Info! Золотая раздача, скачанное не засчитывается.
Торрент: Зарегистрирован [2015-06-22 11:42] · скачан: 578 раз
Статус: √ проверено
Размер: 3.36 GB
Как cкачать? Как скачать Из машины через торрент | qTorrent



Последний раз редактировалось: Tiberiumsun69 (2018-02-09 08:07), всего редактировалось 1 раз

28-11-2019 20:33  

Отключить всю рекламу на сайте

23-06-2015 13:42 Из машины Скачать торрент  

конец просто жесть у меня конкретно бомбануло от уведенногоpb.wtf



25-02-2017 15:16 Из машины Скачать торрент  

Качество не подвело.
Спасибо.pb.wtf



    Дорогой пользователь! Огромная просьба, поблагодарите релизера, оцените раздачу и оставьте свои комментарий, если Вы скачали Из машины через торрент бесплатно! Внесите свою лепту в развитие PiratBit!
    Комментировать посты могут только пользователи прошедшие не сложную регистрацию
    Показать сообщения:    

    Из машины через торрент
    Скачать бесплатно Из машины
    Из машины скачать торрент
    Из машины смотреть онлайн
    Cкачать фильм Из машины бесплатно
    Из машины скачать торрент в хорошем качестве
    Из машины смотреть онлайн бесплатно в хорошем качестве


    Вы не можете начинать темы
    Вы не можете отвечать на сообщения
    Вы не можете редактировать свои сообщения
    Вы не можете удалять свои сообщения
    Вы не можете голосовать в опросах
    Вы не можете прикреплять файлы к сообщениям
    Вы можете скачивать файлы