Всегда рабочее зеркало без VPN и Proxy просто перед .vidak.icu напиши любое слово или цифру, Пример http://g9dp.vidak.icu

MVO

2 сезон

1 сезон

1

1 сезон

iTunes

2 сезон

13

1 сезон

Deluxe

pack

Рекомендуем

Пиратка

30

ВАЖНО

RePack

MK11

RePack

jed

RePack

fifa19

RePack

RDR2

RePack

NEED FOR SPEED™ PAYBACK

Кинопоиск HD

6 сезон

 Острые козырьки 6 сезон

Все сериалы

все сериалы на PB.wtf

RePack

FAR CRY 5

Anonymous, нам критически не хватает 5601 руб. на оплату серверов и переферии за Апрель, помоги нам пожалуйста, вся надежда только на тебя. В благодарность мы отключим тебе всю рекламу на сайте!

×
  
Magnet ссылка

Медленный Запад / Slow West (Джон Маклин ) [2015, боевик, триллер, вестерн, BDRip-AVC / AVO Чадов] pb.wtf

Медленный Запад через торрент pb.wtf

Раздают: 1 [ 0 KB/s ]
Размер: 1.61 GB | Добавлен: 6 лет 10 мес. назад | Торрент скачан:84 раза
Смотреть онлайн Медленный Запад | Скачать    Ребята, помогите собрать деньги на оплату серверов!!!

29-06-2015 07:51 Медленный Запад Скачать торрент  

Информация о фильме

Название: Медленный Запад

Оригинальное название: Slow West

Год выхода: 2015

Страна: Великобритания

Студия: DMC Film

Продолжительность: 01:23:59

Перевод: Авторский одноголосый (Михаил Чадов)

Субтитры: Русские

Жанр: Боевик, триллер, вестерн

Режиссер: Джон Маклин

В ролях: Майкл Фассбендер, Бен Мендельсон, Коди Смит-МакФи, Рори МакКанн, Брук Уильямс, Карен Писториус, Алекс МакКуин, Энди МакФи, Джеффри Томас, Калани Кейпо

Описание:

Фильм рассказывает историю 17-летнего паренька по имени Джей Кавендиш, который путешествует по всей американской границе в поисках девушки, которую он любит. В опасном приключении его сопровождает таинственный путешественник Сайлус.


Файл
Качество: BDRip-AVC
Формат: MKV Видео кодек: MPEG-4 AVC Аудио кодек: AC3
Видео: 1970 Кбит/с, 960x576, 23,976 кадра/сек
Звук: Русский (AC3, 6 ch, 384 Кбит/с), 48.0 KHz
Звук: английский (AC3, 6 ch, 384 Кбит/с), 48.0 KHz,
Сэмпл: ссылка
Рип от StarbirS

Аудио#1: Russian: 48 kHz, AC3, 3/2 (L,C,R,l,r) + LFE ch, ~384 kbps avg - Авторский одноголосый (Михаил Чадов)

Аудио#2: English: 48 kHz, AC3, 3/2 (L,C,R,l,r) + LFE ch, ~384 kbps avg - Оригинал

Субтитры: Русские

x264 [info]: frame I:1092 Avg QP:14.78 size:104924

x264 [info]: frame P:27294 Avg QP:18.24 size: 21802

x264 [info]: frame B:92474 Avg QP:20.10 size: 5752

За русские субтитры спасибо er45ty
Формат : Matroska

Версия формата : Version 2

Размер файла : 1,61 Гбайт

Продолжительность : 1 ч. 24 м.

Общий поток : 2740 Кбит/сек

Название фильма : Slow.West.2015.x264.BDRip.AVC.Rus.Eng

Дата кодирования : UTC 2015-06-28 19:56:27

Программа кодирования : mkvmerge v7.9.0 ('Birds') 64bit

Библиотека кодирования : libebml v1.3.1 + libmatroska v1.4.2

Видео

Идентификатор : 1

Формат : AVC

Формат/Информация : Advanced Video Codec

Профиль формата : High@L4.1

Параметр CABAC формата : Да

Параметр ReFrames формата : 12 кадров

Идентификатор кодека : V_MPEG4/ISO/AVC

Продолжительность : 1 ч. 24 м.

Битрейт : 1970 Кбит/сек

Ширина : 960 пикселей

Высота : 576 пикселей

Соотношение сторон : 5:3

Режим частоты кадров : Постоянный

Частота кадров : 23,976 кадра/сек

Цветовое пространство : YUV

Субдискретизация насыщенности : 4:2:0

Битовая глубина : 8 бит

Тип развёртки : Прогрессивная

Бит/(Пиксели*Кадры) : 0.149

Размер потока : 1,13 Гбайт (70%)

Заголовок : Slow.West.2015.x264.BDRip.AVC.Rus.Eng.by.StarbirS

Библиотека кодирования : x264 core 146 r2538 121396c

Настройки программы : cabac=1 / ref=12 / deblock=1:-3:-3 / analyse=0x3:0x113 / me=umh / subme=11 / psy=1 / psy_rd=1.05:0.15 / mixed_ref=1 / me_range=32 / chroma_me=1 / trellis=2 / 8x8dct=1 / cqm=0 / deadzone=21,11 / fast_pskip=0 / chroma_qp_offset=-3 / threads=12 / lookahead_threads=4 / sliced_threads=0 / nr=0 / decimate=0 / interlaced=0 / bluray_compat=0 / constrained_intra=0 / bframes=8 / b_pyramid=2 / b_adapt=2 / b_bias=0 / direct=3 / weightb=1 / open_gop=1 / weightp=2 / keyint=240 / keyint_min=23 / scenecut=40 / intra_refresh=0 / rc=2pass / mbtree=0 / bitrate=1970 / ratetol=1.0 / qcomp=0.70 / qpmin=0 / qpmax=69 / qpstep=4 / cplxblur=20.0 / qblur=0.5 / ip_ratio=1.40 / pb_ratio=1.30 / aq=1:0.80

Язык : English

Default : Да

Forced : Нет

Аудио #1

Идентификатор : 2

Формат : AC-3

Формат/Информация : Audio Coding 3

Расширение режима : CM (complete main)

Параметр Endianness формата : Big

Идентификатор кодека : A_AC3

Продолжительность : 1 ч. 24 м.

Вид битрейта : Постоянный

Битрейт : 384 Кбит/сек

Каналы : 6 каналов

Расположение каналов : Front: L C R, Side: L R, LFE

Частота : 48,0 КГц

Метод сжатия : С потерями

Задержка видео : 1 с. 24 мс.

Размер потока : 231 Мбайт (14%)

Заголовок : Авторский одноголосый (М. Чадов)

Язык : Russian

Default : Да

Forced : Нет

Аудио #2

Идентификатор : 3

Формат : AC-3

Формат/Информация : Audio Coding 3

Расширение режима : CM (complete main)

Параметр Endianness формата : Big

Идентификатор кодека : A_AC3

Продолжительность : 1 ч. 24 м.

Вид битрейта : Постоянный

Битрейт : 384 Кбит/сек

Каналы : 6 каналов

Расположение каналов : Front: L C R, Side: L R, LFE

Частота : 48,0 КГц

Метод сжатия : С потерями

Размер потока : 231 Мбайт (14%)

Язык : English

Default : Нет

Forced : Нет

Текст

Идентификатор : 4

Формат : UTF-8

Идентификатор кодека : S_TEXT/UTF8

Идентификатор кодека/Информация : UTF-8 Plain Text

Язык : Russian

Default : Нет

Forced : Нет

Меню

00:00:00.000 : en:Chapter 1

00:04:55.128 : en:Chapter 2

00:10:24.165 : en:Chapter 3

00:14:35.541 : en:Chapter 4

00:19:08.397 : en:Chapter 5

00:25:29.236 : en:Chapter 6

00:29:17.756 : en:Chapter 7

00:35:17.281 : en:Chapter 8

00:39:36.290 : en:Chapter 9

00:45:26.640 : en:Chapter 10

00:51:45.435 : en:Chapter 11

00:55:14.185 : en:Chapter 12

01:01:43.908 : en:Chapter 13

01:07:38.596 : en:Chapter 14

01:10:55.960 : en:Chapter 15

01:18:29.329 : en:Chapter 16
pb.wtf



Скачать Медленный Запад через торрент http://i69.fastpic.ru/big/2015/0629/e6/bc733350e02936807990ee2c1492f7e6.jpg Скачать, смотреть онлайн Медленный Запад бесплантно в хорошем качестве Описание: Фильм рассказывает историю 17-летнего паренька по имени Джей Кавендиш, который путешествует по всей американской границе в ... 10 10 4
Торрент: Зарегистрирован [2015-06-29 07:51] · скачан: 84 раз
Статус: √ проверено
Размер: 1.61 GB
Как cкачать? Как скачать Медленный Запад через торрент | UTorrent

% Раздел Тема Автор DL S | L
Фильмы 2015 [DVDrip, WEB-DLRip, HDrip] [ 1.46 GB ] Строго на запад / Медленный Запад / Slow West [2015 BDRip] DUB Twi7ter Скачать
1 | 0
Фильмы 2015 [DVDrip, WEB-DLRip, HDrip] [ 2.14 GB ] Медленный Запад / Строго на запад / Slow West [2015 BDRip-AVC] Dub potroks Скачать
1 | 0
Фильмы 2015 [DVDrip, WEB-DLRip, HDrip] [ 1.42 GB ] Медленный Запад / Строго на запад / Slow West [2015 BDRip-AVC] Dub potroks Скачать
1 | 0
Фильмы 2015 [DVDrip, WEB-DLRip, HDrip] [ 1.37 GB ] Медленный Запад / Slow West [2015 HDRip / Дублированное Ворон Скачать
1 | 0
Фильмы 2015 [DVDrip, WEB-DLRip, HDrip] [ 1.42 GB ] Строго на запад / Медленный Запад / Slow West [2015 BDRip] Dub Twi7ter Скачать
1 | 0
Фильмы [HD 720p, 1080p] (Хороший звук DUB, MVO) [ 8.27 GB ] Медленный Запад / Строго на запад / Slow West [2015 BDRip 1080p DUB ] Ворон Скачать
1 | 0
Фильмы (Blu-ray, BD-Remux, HDDVD) [ 18.6 GB ] Медленный Запад / Slow West [2015 BD Remux AVO+DVO+VO] Ворон Скачать
1 | 0


Последний раз редактировалось: Ворон (2015-06-29 08:08), всего редактировалось 1 раз

28-11-2019 20:33  

Отключить всю рекламу на сайте

29-06-2015 08:03 Медленный Запад Скачать торрент  

говорят фильм хороший.Нужно глянутьpb.wtf



29-06-2015 08:09 Медленный Запад Скачать торрент  

killermax2013 писал(а):

говорят фильм хороший.Нужно глянуть

да говорят неплохой фильм, но подожду лучшего переводаpb.wtf



29-06-2015 08:41 Медленный Запад Скачать торрент  

Russian Mafia писал(а):

killermax2013 писал(а):

говорят фильм хороший.Нужно глянуть

да говорят неплохой фильм, но подожду лучшего перевода

в прокате не выходит то бубляж не ждите айтюнс многоголоска и то может через год как обычноpb.wtf



29-06-2015 08:49 Медленный Запад Скачать торрент  

тогда придёться забирать как есть ))) а то многоголоску долго ждать )pb.wtf



29-06-2015 09:06 Медленный Запад Скачать торрент  

есть многоголосый любительский, ребята, в разы приятнее смотреть, на крайняк с сабамиpb.wtf



29-06-2015 09:14 Медленный Запад Скачать торрент  

[quote="bakerman"]есть многоголосый любительский,

Любительский двухголосыйpb.wtf



29-06-2015 09:18 Медленный Запад Скачать торрент  

bakerman писал(а):

есть многоголосый любительский, ребята, в разы приятнее смотреть, на крайняк с сабами

авторский лучше чем любительскийpb.wtf



29-06-2015 10:06 Медленный Запад Скачать торрент  

killermax2013, да перевод одинаковый, а любительская озвучка поприятнее, но это ИМХО есстественноpb.wtf



    Дорогой пользователь! Огромная просьба, поблагодарите релизера, оцените раздачу и оставьте свои комментарий, если Вы скачали Медленный Запад через торрент бесплатно!
    Комментировать посты могут только пользователи прошедшие не сложную регистрацию
    Показать сообщения:    

    Медленный Запад через торрент
    Скачать бесплатно Медленный Запад
    Медленный Запад скачать торрент
    Медленный Запад смотреть онлайн
    Cкачать фильм Медленный Запад бесплатно
    Медленный Запад скачать торрент в хорошем качестве
    Медленный Запад смотреть онлайн бесплатно в хорошем качестве


    Вы не можете начинать темы
    Вы не можете отвечать на сообщения
    Вы не можете редактировать свои сообщения
    Вы не можете удалять свои сообщения
    Вы не можете голосовать в опросах
    Вы не можете прикреплять файлы к сообщениям
    Вы можете скачивать файлы