Ссылка на приватное зеркало нашего сайта всего за 1$. Внимание количество ограничено!!!

2 сезон

iTunes

1 сезон

1

2 сезон

2 сезон

iTunes

1 сезон

RePack

30

Ultimate

ВАЖНО

ИГРА 18+

pack

RePack

MK11
pack

Забери бонус

RePack

jed

!!Акция!!

Alien_Rage

RePack

fifa19

RePack

Assassins Creed: Odyssey

RePack

NEED FOR SPEED™ PAYBACK

4 сезон

9 сезон

Бесстыжие 9 сезон

Все сериалы

все сериалы на PB.wtf

RePack

FAR CRY 5
  

Луковое поле / The Onion Field (Гарольд Бекер) [1979, драма, криминал, BDRip 720p by msltel] DVO, AVO pb.wtf

Луковое поле через торрент pb.wtf

Размер: 13.91 GB | Добавлен: 5 лет 4 мес. назад | Торрент скачан:4 раза
Скачать  

09-07-2015 06:05 Луковое поле Скачать торрент  


Название: Луковое поле
Оригинальное название: The Onion Field
Год выпуска: 1979
Страна: США
Жанр: драма, криминал
Продолжительность: 02:06:18
Перевод: профессиональный двухголосый, авторский

Режиссёр: Гарольд Бекер

В ролях: Джон Сэвэдж, Джеймс Вудс, Франклин Силс, Тед Дэнсон, Ронни Кокс, Дэвид Хаффман, Кристофер Ллойд, Дайян Халл, Присцилла Пойнтер, Биджи Баркетт

Описание: 1963. Калифорния. Двое полицейских, Ян и Карл, похищены бандитами, которые привозят их в окрестности городка Бекерсфильда. Здесь, на луковом поле, они убивают Яна, однако его другу удается бежать. Вскоре преступники попадают в руки полиции. На суде Карл выступает против них, и бандиты признают свою вину. Однако кто именно из них убил Яна, остаётся невыясненным. Дело затягивается на годы, а жизнь Карла превращается в кошмар... Фильм основан на реальных событиях.



Качество: BDRip 1080p Сравнение с исходником
Формат: MKV
Видео кодек: H.264
Аудио кодек: AC3, DTS
Видео: MPEG-4 AVC, 12.0 Mбит/с, 1920x1032, 23,976 кадра/с
Аудио 1: русский, DTS, 1509 kbps, 2 ch, 48 kHz [профессиональный двухголосый, Tycoon]
Аудио 2: русский, AC3, 384 kbps, 2 ch, 48 kHz [авторский, Михаил Иванов]
Аудио 3: английский, DTS, 1509 kbps, 2 ch, 48 kHz [оригинал]
Субтитры 1: русские
Субтитры 2: английские
Золотой глобус, 1980 год
Номинации (1):
Лучшая мужская роль (драма) (Джеймс Вудс)
Общее
Уникальный идентификатор : 227759901245679559854306781795923469533 (0xAB58F61DEA5A4F2DB22E6AA5D78B24DD)
Полное имя : D:VideoЛуковое поле.1979.BDRip.1080p.mkv
Формат : Matroska
Версия формата : Version 4 / Version 2
Размер файла : 13,9 Гбайт
Продолжительность : 2 ч. 6 м.
Общий поток : 15,8 Мбит/сек
Название фильма : BDRip -- STarankov
Дата кодирования : UTC 2015-07-09 02:09:31
Программа кодирования : mkvmerge v7.9.0 ('Birds') 64bit
Библиотека кодирования : libebml v1.3.1 + libmatroska v1.4.2
_STATISTICS_WRITING_APP : mkvmerge v7.9.0 ('Birds') 64bit
_STATISTICS_WRITING_DATE_UTC : 2015-07-09 02:09:31
_STATISTICS_TAGS : BPS DURATION NUMBER_OF_FRAMES NUMBER_OF_BYTES
DURATION : 02:06:18.006000000
NUMBER_OF_FRAMES : 710438
NUMBER_OF_BYTES : 1429401320

Видео
Идентификатор : 1
Формат : AVC
Формат/Информация : Advanced Video Codec
Профиль формата : High@L4.1
Параметр CABAC формата : Да
Параметр ReFrames формата : 4 кадра
Идентификатор кодека : V_MPEG4/ISO/AVC
Продолжительность : 2 ч. 6 м.
Битрейт : 12,0 Мбит/сек
Ширина : 1920 пикселей
Высота : 1032 пикселя
Соотношение сторон : 1,85:1
Режим частоты кадров : Постоянный
Частота кадров : 23,976 кадра/сек
Цветовое пространство : YUV
Субдискретизация насыщенности : 4:2:0
Битовая глубина : 8 бит
Тип развёртки : Прогрессивная
Бит/(Пиксели*Кадры) : 0.254
Размер потока : 10,6 Гбайт (76%)
Библиотека кодирования : x264 core 146 r2538 121396c
Настройки программы : cabac=1 / ref=4 / deblock=1:-1:-1 / analyse=0x3:0x113 / me=umh / subme=10 / psy=1 / psy_rd=1.00:0.15 / mixed_ref=1 / me_range=32 / chroma_me=1 / trellis=2 / 8x8dct=1 / cqm=0 / deadzone=21,11 / fast_pskip=1 / chroma_qp_offset=-3 / threads=6 / lookahead_threads=1 / sliced_threads=0 / nr=0 / decimate=1 / interlaced=0 / bluray_compat=0 / constrained_intra=0 / bframes=13 / b_pyramid=2 / b_adapt=2 / b_bias=0 / direct=1 / weightb=1 / open_gop=0 / weightp=2 / keyint=230 / keyint_min=23 / scenecut=40 / intra_refresh=0 / rc_lookahead=40 / rc=crf / mbtree=0 / crf=21.5 / qcomp=0.60 / qpmin=0 / qpmax=69 / qpstep=4 / vbv_maxrate=40000 / vbv_bufsize=50000 / crf_max=0.0 / nal_hrd=none / filler=0 / ip_ratio=1.40 / pb_ratio=1.30 / aq=1:1.00
Язык : English
Default : Да
Forced : Нет
DURATION : 02:06:17.403000000
NUMBER_OF_FRAMES : 181676
NUMBER_OF_BYTES : 11704281554
_STATISTICS_WRITING_APP : mkvmerge v7.9.0 ('Birds') 64bit
_STATISTICS_WRITING_DATE_UTC : 2015-07-09 02:09:31
_STATISTICS_TAGS : BPS DURATION NUMBER_OF_FRAMES NUMBER_OF_BYTES

Аудио #1
Идентификатор : 2
Формат : DTS
Формат/Информация : Digital Theater Systems
Режим : 16
Параметр Endianness формата : Big
Идентификатор кодека : A_DTS
Продолжительность : 2 ч. 6 м.
Вид битрейта : Постоянный
Битрейт : 1509 Кбит/сек
Каналы : 2 канала
Расположение каналов : Front: L R
Частота : 48,0 КГц
Битовая глубина : 16 бит
Метод сжатия : С потерями
Размер потока : 1,33 Гбайт (10%)
Заголовок : DVO (Tycoon)
Язык : Russian
Default : Да
Forced : Нет

Аудио #2
Идентификатор : 3
Формат : AC-3
Формат/Информация : Audio Coding 3
Расширение режима : CM (complete main)
Параметр Endianness формата : Big
Идентификатор кодека : A_AC3
Продолжительность : 2 ч. 6 м.
Вид битрейта : Постоянный
Битрейт : 384 Кбит/сек
Каналы : 2 канала
Расположение каналов : Front: L R
Частота : 48,0 КГц
Битовая глубина : 16 бит
Метод сжатия : С потерями
Размер потока : 347 Мбайт (2%)
Заголовок : AVO (Михаил Иванов)
Язык : Russian
Default : Нет
Forced : Нет

Аудио #3
Идентификатор : 4
Формат : DTS
Формат/Информация : Digital Theater Systems
Режим : 16
Параметр Endianness формата : Big
Идентификатор кодека : A_DTS
Продолжительность : 2 ч. 6 м.
Вид битрейта : Постоянный
Битрейт : 1509 Кбит/сек
Каналы : 2 канала
Расположение каналов : Front: L R
Частота : 48,0 КГц
Битовая глубина : 16 бит
Метод сжатия : С потерями
Размер потока : 1,33 Гбайт (10%)
Заголовок : Original
Язык : English
Default : Нет
Forced : Нет

Текст #1
Идентификатор : 5
Формат : UTF-8
Идентификатор кодека : S_TEXT/UTF8
Идентификатор кодека/Информация : UTF-8 Plain Text
Заголовок : русский
Язык : Russian
Default : Нет
Forced : Нет

Текст #2
Идентификатор : 6
Формат : UTF-8
Идентификатор кодека : S_TEXT/UTF8
Идентификатор кодека/Информация : UTF-8 Plain Text
Заголовок : английский
Default : Нет
Forced : Нет
pb.wtf



Скачать Луковое поле через торрент http://i69.fastpic.ru/big/2015/0705/e7/e164f617a17e57b7cba1e588e49979e7.jpg Скачать фильм Луковое поле через торрент бесплантно в хорошем качестве Описание: 196 Калифорния. Двое полицейских, Ян и Карл, похищены бандитами, которые привозят их в окрестности городка Бекерсфильда. Здесь, ... 5 10 1
Торрент: Зарегистрирован [2015-07-09 06:05] · скачан: 4 раз
Статус: √ проверено
Размер: 13.91 GB
Как cкачать? Как скачать Луковое поле через торрент | qTorrent

% Раздел Тема Автор DL S | L
Фильмы [HD 720p, 1080p] (Хороший звук DUB, MVO) [ 5.01 GB ] Луковое поле / The Onion Field [1979 BDRip 720p by msltel] DVO AVO msltel Скачать
1 | 0
Фильмы до 2000 г. [ 3.19 GB ] Луковое поле / The Onion Field [1979 BDRip AVC by msltel] DVO AVO msltel Скачать
1 | 0

28-11-2019 20:33  

Отключить всю рекламу на сайте

    Дорогой пользователь! Огромная просьба, поблагодарите релизера, оцените раздачу и оставьте свои комментарий, если Вы скачали Луковое поле через торрент бесплатно! Внесите свою лепту в развитие PiratBit!
    Комментировать посты могут только пользователи прошедшие не сложную регистрацию
    Показать сообщения:    

    Луковое поле через торрент
    Скачать бесплатно Луковое поле
    Луковое поле скачать торрент
    Луковое поле смотреть онлайн
    Cкачать фильм Луковое поле бесплатно
    Луковое поле скачать торрент в хорошем качестве
    Луковое поле смотреть онлайн бесплатно в хорошем качестве


    Вы не можете начинать темы
    Вы не можете отвечать на сообщения
    Вы не можете редактировать свои сообщения
    Вы не можете удалять свои сообщения
    Вы не можете голосовать в опросах
    Вы не можете прикреплять файлы к сообщениям
    Вы можете скачивать файлы