Ссылка на приватное зеркало нашего сайта всего за 1$. Внимание количество ограничено!!!

2 сезон

iTunes

1 сезон

1

2 сезон

2 сезон

iTunes

1 сезон

RePack

30

Ultimate

ВАЖНО

ИГРА 18+

pack

RePack

MK11
pack

Забери бонус

RePack

jed

!!Акция!!

Alien_Rage

RePack

fifa19

RePack

Assassins Creed: Odyssey

RePack

NEED FOR SPEED™ PAYBACK

4 сезон

9 сезон

Бесстыжие 9 сезон

Все сериалы

все сериалы на PB.wtf

RePack

FAR CRY 5
  

Турецкий для начинающих / Turkisch fur Anfanger ( Бора Дагтекин) [2012, комедия, приключения, BDRip 1080p] pb.wtf

Турецкий для начинающих через торрент pb.wtf

Размер: 7.93 GB | Добавлен: 5 лет 4 мес. назад | Торрент скачан:61 раз
Скачать  

15-07-2015 11:05 Турецкий для начинающих Скачать торрент  

Информация о фильме

Название: Турецкий для начинающих

Оригинальное название: Turkisch fur Anfanger

Год выхода: 2012

Выпущено: Германия

Продолжительность: 01:48:39

Озвучивание: Дублированное [Лицензия]

Субтитры: Russian, English

Жанр: комедия, приключения

Режиссер: Бора Дагтекин

В ролях: Жозефина Пройс, Эльяс М’Барек, Анна Штайблих, Аднан Марал, Пега Феридони, Арнел Таки, Катя Риманн, Катарина Каали, Фредерик Лау, Ник Ромео Рейманн

Описание:

Лена – девятнадцатилетняя девушка, недовольная своей жизнью. Ее мать Дорис работает психотерапевтом и норовит применять свои навыки дома, младший брат Нильс – ребенок более чем странный, а парень Лены хочет от нее слишком многого и тем самым вызывает глухое раздражение. Но верно говорят, что все познается в сравнении: когда Лена сталкивается с представителями семьи Озтюрков – немцами турецкого происхождения, блюдущими традиции своей родины, она понимает, что доселе не знала настоящих проблем.

Столкновение двух культур происходит на тайском острове, куда Лена попадает после крушения самолета. И пока ее мать общается с Метином, отцом семейства Озтюрков, и заботится о Нильсе, Лена приходит в ужас от общения с его детьми: турецким мачо Чемом и его младшей сестрой Ягмур, чтущей ислам. Надо сказать, они от раскрепощенной и острой на язык Лены тоже не в восторге, но делать нечего: на острове приходится рассчитывать на любую помощь. А если добавить к этой странной компании грека Косту, лучшего друга Чема, станет совсем весело.



Файл
Качество: BDRip 1080p [DETAiLS]
Формат:MKV
Видео кодек: AVC
Аудио кодек: AC3
Видео: 8344 kb/s, 1920x816, 24,000 кадра/сек
Аудио1: Russian: AC3, 384 kb/s (6 ch), 48.0 KHz
Аудио2: German: DTS, 1510 kb/s (6 ch), 48.0 KHz

Дополнительно: Сохранены оригинальные чаптеры как на Blu-Ray

Скачать: Сэмпл

скриншот   скриншот   скриншот   скриншот  
Общее

Turkisch.Fur.Anfanger.2012.Blu.Ray.1080p.CINEMANIA.mkv

Формат : Matroska

Версия формата : Version 4 / Version 2

Размер файла : 7,93 Гбайт

Продолжительность : 1 ч. 48 м.

Общий поток : 10,4 Мбит/сек

Название фильма : Release Group CINEMANIA

Дата кодирования : UTC 2014-04-05 13:46:42

Программа кодирования : mkvmerge v6.8.0 ('Theme for Great Cities') 64bit built on Mar 2 2014 21:34:26

Библиотека кодирования : libebml v1.3.0 + libmatroska v1.4.1

Видео

Идентификатор : 1

Формат : AVC

Формат/Информация : Advanced Video Codec

Профиль формата : High@L4.1

Параметр CABAC формата : Да

Параметр ReFrames формата : 5 кадров

Идентификатор кодека : V_MPEG4/ISO/AVC

Продолжительность : 1 ч. 48 м.

Битрейт : 8344 Кбит/сек

Ширина : 1920 пикселей

Высота : 816 пикселей

Соотношение сторон : 2,35:1

Режим частоты кадров : Постоянный

Частота кадров : 24,000 кадра/сек

Цветовое пространство : YUV

Субдискретизация насыщенности : 4:2:0

Битовая глубина : 8 бит

Тип развёртки : Прогрессивная

Бит/(Пиксели*Кадры) : 0.222

Размер потока : 6,33 Гбайт (80%)

Заголовок : Release Group CINEMANIA

Библиотека кодирования : x264 core 125 r2208 d9d2288

Настройки программы : cabac=1 / ref=5 / deblock=1:-1:-1 / analyse=0x3:0x133 / me=umh / subme=7 / psy=1 / psy_rd=1.00:0.15 / mixed_ref=1 / me_range=16 / chroma_me=1 / trellis=1 / 8x8dct=1 / cqm=0 / deadzone=21,11 / fast_pskip=0 / chroma_qp_offset=-3 / threads=12 / lookahead_threads=2 / sliced_threads=0 / nr=0 / decimate=1 / interlaced=0 / bluray_compat=0 / constrained_intra=0 / bframes=3 / b_pyramid=2 / b_adapt=1 / b_bias=0 / direct=3 / weightb=1 / open_gop=0 / weightp=2 / keyint=240 / keyint_min=24 / scenecut=40 / intra_refresh=0 / rc_lookahead=40 / rc=crf / mbtree=1 / crf=20.0 / qcomp=0.60 / qpmin=0 / qpmax=69 / qpstep=4 / ip_ratio=1.40 / aq=1:1.00

Default : Да

Forced : Нет

Аудио #1

Идентификатор : 2

Формат : AC-3

Формат/Информация : Audio Coding 3

Расширение режима : CM (complete main)

Параметр Endianness формата : Big

Идентификатор кодека : A_AC3

Продолжительность : 1 ч. 48 м.

Вид битрейта : Постоянный

Битрейт : 384 Кбит/сек

Каналы : 6 каналов

Расположение каналов : Front: L C R, Side: L R, LFE

Частота : 48,0 КГц

Битовая глубина : 16 бит

Метод сжатия : С потерями

Размер потока : 299 Мбайт (4%)

Заголовок : Дубляж (Лицензия)

Язык : Russian

Default : Да

Forced : Да

Аудио #2

Идентификатор : 3

Формат : DTS

Формат/Информация : Digital Theater Systems

Режим : 16

Параметр Endianness формата : Big

Идентификатор кодека : A_DTS

Продолжительность : 1 ч. 48 м.

Вид битрейта : Постоянный

Битрейт : 1509 Кбит/сек

Каналы : 6 каналов

Расположение каналов : Front: L C R, Side: L R, LFE

Частота : 48,0 КГц

Битовая глубина : 24 бит

Метод сжатия : С потерями

Размер потока : 1,15 Гбайт (14%)

Язык : German

Default : Нет

Forced : Нет

Текст #1

Идентификатор : 4

Формат : UTF-8

Идентификатор кодека : S_TEXT/UTF8

Идентификатор кодека/Информация : UTF-8 Plain Text

Заголовок : notabenoid

Язык : Russian

Default : Нет

Forced : Нет

Текст #2

Идентификатор : 5

Формат : UTF-8

Идентификатор кодека : S_TEXT/UTF8

Идентификатор кодека/Информация : UTF-8 Plain Text

Язык : English

Default : Нет

Forced : Нет

Меню

00:00:00.000 : de:00:00:00.000

00:06:58.750 : de:00:06:58.750

00:12:05.250 : de:00:12:05.250

00:17:04.625 : de:00:17:04.625

00:22:03.500 : de:00:22:03.500

00:27:20.417 : de:00:27:20.417

00:32:16.333 : de:00:32:16.333

00:35:07.042 : de:00:35:07.042

00:39:55.333 : de:00:39:55.333

00:43:25.667 : de:00:43:25.667

00:48:30.000 : de:00:48:30.000

00:53:39.458 : de:00:53:39.458

00:57:28.292 : de:00:57:28.292

01:02:56.375 : de:01:02:56.375

01:09:00.667 : de:01:09:00.667

01:13:32.833 : de:01:13:32.833

01:18:42.167 : de:01:18:42.167

01:24:20.583 : de:01:24:20.583

01:29:21.500 : de:01:29:21.500

01:34:50.083 : de:01:34:50.083

01:40:46.125 : de:01:40:46.125
pb.wtf



Скачать Турецкий для начинающих через торрент http://6.firepic.org/6/images/2014-04/05/7vqhzheuf1tr.jpg Скачать фильм Турецкий для начинающих через торрент бесплантно в хорошем качестве Описание: Лена – девятнадцатилетняя девушка, недовольная своей жизнью. Ее мать Дорис работает психотерапевтом и норовит применять свои ... 8.2 10 5
Торрент: Зарегистрирован [2015-07-15 11:05] · скачан: 61 раз
Статус: √ проверено
Размер: 7.93 GB
Как cкачать? Как скачать Турецкий для начинающих через торрент | qTorrent

% Раздел Тема Автор DL S | L
Фильмы [HD 720p, 1080p] (Хороший звук DUB, MVO) [ 5.63 GB ] Турецкий для начинающих / Turkisch fur Anfanger [2012 BDRip 720p] DEVI Скачать
1 | 0
Фильмы 2012 [ 1.46 GB ] Турецкий для начинающих / Turkisch fur Anfanger [2012 HDRip] [лицензия] VintMosina Скачать
1 | 0
Фильмы (DVD фильмы) [ 5.5 GB ] Турецкий для начинающих / Turkisch fur Anfanger / Turkish for Beginners [2012 DVD9] R5 voovaz Скачать
1 | 0
Фильмы 2012 [ 1.41 GB ] Турецкий для начинающих / Turkisch fur Anfanger [2012 DVDRip VO] Twi7ter Скачать
1 | 0

28-11-2019 20:33  

Отключить всю рекламу на сайте

    Дорогой пользователь! Огромная просьба, поблагодарите релизера, оцените раздачу и оставьте свои комментарий, если Вы скачали Турецкий для начинающих через торрент бесплатно! Внесите свою лепту в развитие PiratBit!
    Комментировать посты могут только пользователи прошедшие не сложную регистрацию
    Показать сообщения:    

    Турецкий для начинающих через торрент
    Скачать бесплатно Турецкий для начинающих
    Турецкий для начинающих скачать торрент
    Турецкий для начинающих смотреть онлайн
    Cкачать фильм Турецкий для начинающих бесплатно
    Турецкий для начинающих скачать торрент в хорошем качестве
    Турецкий для начинающих смотреть онлайн бесплатно в хорошем качестве


    Вы не можете начинать темы
    Вы не можете отвечать на сообщения
    Вы не можете редактировать свои сообщения
    Вы не можете удалять свои сообщения
    Вы не можете голосовать в опросах
    Вы не можете прикреплять файлы к сообщениям
    Вы можете скачивать файлы