Ссылка на приватное зеркало нашего сайта всего за 1$. Внимание количество ограничено!!!

2 сезон

iTunes

1 сезон

1

2 сезон

2 сезон

iTunes

1 сезон

RePack

30

Новинка

ВАЖНО

ИГРА 18+

pack

RePack

MK11
pack

Забери бонус

RePack

jed

!!Акция!!

Alien_Rage

RePack

fifa19

RePack

Assassins Creed: Odyssey

RePack

NEED FOR SPEED™ PAYBACK

4 сезон

9 сезон

Бесстыжие 9 сезон

Все сериалы

все сериалы на PB.wtf

RePack

FAR CRY 5
  

Робот по имени Чаппи / Chappie (Нил Бломкамп / Neill Blomkamp) [2015, Фантастика, боевик, триллер, BDRip 720p от potroks] DUB Лицензия pb.wtf

Робот по имени Чаппи через торрент pb.wtf

Раздают: 1 [ 0 KB/s ]
Размер: 5.99 GB | Добавлен: 5 лет 4 мес. назад | Торрент скачан:455 раз
Скачать  

06-06-2015 10:12 Робот по имени Чаппи Скачать торрент  


Год выпуска: 2015
Страна: США, Мексика, ЮАР / Sony Pictures Entertainment (SPE)...
Жанр: Фантастика, боевик, триллер
Продолжительность: 02:00:19
Перевод: Дубляж [BD CEE]
Субтитры: Русские (полные + форс.), украинские (полные + форс.), английские (Forced + Full + SDH + SDH-Colored)

Режиссер: Нил Бломкамп / Neill Blomkamp

В ролях: Шарлто Копли, Дев Патель, Ниндзя, Йоланди Фиссер, Хосе Пабло Кантилльо, Хью Джекман, Сигурни Уивер, Брэндон Оре, Джонни Селема, Андерсон Купер, Морис Карпеде, Джейсон Коуп, Кевин Отто, Крис Шилдс, Билл Мэрчент, Роберт Хоббс, Марк К. Куслу, Шерлдон Марема, Шахид Хаджи, Дэвид Давадосс

Описание: Чаппи – высокоинтеллектуальный робот, созданный талантливейшим ученым. В отличие от тысяч аналогов, Чаппи может не только мыслить и развиваться, но и чувствовать, страдать, надеяться и мечтать. Одним словом, это – человек, только с большими интеллектуальными и физическими способностями и большим объемом памяти. Сейчас Чаппи – эдакий ребенок, который учится, шутит, играет, познает мир. Ученый, его создавший, относится к Чаппи, как к родному сыну и радуется каждому его достижению. Но однажды Чаппи похищают люди недобрые, прознавшие об уникальных способностях робота и решившие воспользоваться этим в своих подлых целях. Мафиозники обучают Чаппи на свой манер, и к большой печали, первоначально Чаппи верит людям, перенимая иной образ поведения и общения, нежели ему внушался прежде. Карусель событий разгоняется все быстрее: теперь военные получили информацию, что у мафии есть высокоинтеллектуальный робот и объявили охоту на него.



Качество: BDRip 720p
Формат: MKV
Видео кодек: H.264
Аудио кодек: AC3
Видео: 1280x534 (2,40:1), 23.976 fps, 4563 Кbps, 0.278 bit/pixel
Аудио#1: 48 kHz, AC3 Dolby Digital, 3/2 (L,C,R,l,r) + LFE ch, 640.00 kbps | RUS
Аудио#2: 48 kHz, AC3 Dolby Digital, 3/2 (L,C,R,l,r) + LFE ch, 640.00 kbps | AVO - Д.Есарев
Аудио#3: 48 kHz, AC3 Dolby Digital, 3/2 (L,C,R,l,r) + LFE ch, 640.00 kbps | UKR
Аудио#4: 48 kHz, AC3 Dolby Digital, 3/2 (L,C,R,l,r) + LFE ch, 640.00 kbps | ENG

Релиз группы:
Автор рипа: potroks

Код:

Общее
Уникальный идентификатор                 : 194552209889442042016799037140662940711 (0x925D64867F85E07E8004E774A20EF427)
Полное имя                               : Robot.po.Imeni.Chappi.2015.DUB.AVO.UKR.ENG.BDRip.720p.-HELLYWOOD.mkv
Формат                                   : Matroska
Версия формата                           : Version 4 / Version 2
Размер файла                             : 5,99 Гбайт
Продолжительность                        : 2 ч. 0 м.
Общий поток                              : 7123 Кбит/сек
Название фильма                          : Chappie (2015) - HELLYWOOD
Дата кодирования                         : UTC 2015-07-08 08:28:07
Программа кодирования                    : mkvmerge v5.9.0 ('On The Loose') built on Dec 15 2012 16:39:58
Библиотека кодирования                   : libebml v1.3.0 + libmatroska v1.4.0

Видео
Идентификатор                            : 1
Формат                                   : AVC
Формат/Информация                        : Advanced Video Codec
Профиль формата                          : High@L4.1
Параметр CABAC формата                   : Да
Параметр ReFrames формата                : 9 кадров
Идентификатор кодека                     : V_MPEG4/ISO/AVC
Продолжительность                        : 2 ч. 0 м.
Битрейт                                  : 4563 Кбит/сек
Ширина                                   : 1280 пикселей
Высота                                   : 534 пикселя
Соотношение сторон                       : 2,40:1
Режим частоты кадров                     : Постоянный
Частота кадров                           : 23,976 кадра/сек
Цветовое пространство                    : YUV
Субдискретизация насыщенности            : 4:2:0
Битовая глубина                          : 8 бит
Тип развёртки                            : Прогрессивная
Бит/(Пиксели*Кадры)                      : 0.278
Размер потока                            : 3,72 Гбайт (62%)
Заголовок                                : potroks
Библиотека кодирования                   : x264 core 146 r2538 121396c
Настройки программы                      : cabac=1 / ref=9 / deblock=1:-3:-3 / analyse=0x3:0x113 / me=umh / subme=11 / psy=1 / psy_rd=1.00:0.05 / mixed_ref=1 / me_range=48 / chroma_me=1 / trellis=2 / 8x8dct=1 / cqm=0 / deadzone=21,11 / fast_pskip=0 / chroma_qp_offset=-3 / threads=9 / lookahead_threads=2 / sliced_threads=0 / nr=0 / decimate=0 / interlaced=0 / bluray_compat=0 / constrained_intra=0 / bframes=11 / b_pyramid=2 / b_adapt=2 / b_bias=0 / direct=3 / weightb=1 / open_gop=0 / weightp=2 / keyint=250 / keyint_min=23 / scenecut=40 / intra_refresh=0 / rc_lookahead=60 / rc=2pass / mbtree=0 / bitrate=4563 / ratetol=1.0 / qcomp=0.70 / qpmin=0 / qpmax=69 / qpstep=4 / cplxblur=20.0 / qblur=0.5 / vbv_maxrate=14000 / vbv_bufsize=14000 / nal_hrd=none / filler=0 / ip_ratio=1.35 / pb_ratio=1.25 / aq=1:0.80
Язык                                     : English
Default                                  : Да
Forced                                   : Нет

Аудио #1
Идентификатор                            : 2
Формат                                   : AC-3
Формат/Информация                        : Audio Coding 3
Расширение режима                        : CM (complete main)
Параметр Endianness формата              : Big
Идентификатор кодека                     : A_AC3
Продолжительность                        : 2 ч. 0 м.
Вид битрейта                             : Постоянный
Битрейт                                  : 640 Кбит/сек
Каналы                                   : 6 каналов
Расположение каналов                     : Front: L C R, Side: L R, LFE
Частота                                  : 48,0 КГц
Метод сжатия                             : С потерями
Размер потока                            : 551 Мбайт (9%)
Заголовок                                : Dub | DD 5.1 @ 640 kbps - Blu-Ray CEE
Язык                                     : Russian
Default                                  : Да
Forced                                   : Нет

Аудио #2
Идентификатор                            : 3
Формат                                   : AC-3
Формат/Информация                        : Audio Coding 3
Расширение режима                        : CM (complete main)
Параметр Endianness формата              : Big
Идентификатор кодека                     : A_AC3
Продолжительность                        : 2 ч. 0 м.
Вид битрейта                             : Постоянный
Битрейт                                  : 640 Кбит/сек
Каналы                                   : 6 каналов
Расположение каналов                     : Front: L C R, Side: L R, LFE
Частота                                  : 48,0 КГц
Метод сжатия                             : С потерями
Размер потока                            : 551 Мбайт (9%)
Заголовок                                : AVO | DD 5.1 @ 640 kbps - Д.Есарев
Язык                                     : Russian
Default                                  : Нет
Forced                                   : Нет

Аудио #3
Идентификатор                            : 4
Формат                                   : AC-3
Формат/Информация                        : Audio Coding 3
Расширение режима                        : CM (complete main)
Параметр Endianness формата              : Big
Идентификатор кодека                     : A_AC3
Продолжительность                        : 2 ч. 0 м.
Вид битрейта                             : Постоянный
Битрейт                                  : 640 Кбит/сек
Каналы                                   : 6 каналов
Расположение каналов                     : Front: L C R, Side: L R, LFE
Частота                                  : 48,0 КГц
Метод сжатия                             : С потерями
Размер потока                            : 551 Мбайт (9%)
Заголовок                                : Dub | DD 5.1 @ 640 kbps - Blu-Ray CEE
Язык                                     : Ukrainian
Default                                  : Нет
Forced                                   : Нет

Аудио #4
Идентификатор                            : 5
Формат                                   : AC-3
Формат/Информация                        : Audio Coding 3
Расширение режима                        : CM (complete main)
Параметр Endianness формата              : Big
Идентификатор кодека                     : A_AC3
Продолжительность                        : 2 ч. 0 м.
Вид битрейта                             : Постоянный
Битрейт                                  : 640 Кбит/сек
Каналы                                   : 6 каналов
Расположение каналов                     : Front: L C R, Side: L R, LFE
Частота                                  : 48,0 КГц
Метод сжатия                             : С потерями
Размер потока                            : 551 Мбайт (9%)
Заголовок                                : Original | DD 5.1 @ 640 kbps
Язык                                     : English
Default                                  : Нет
Forced                                   : Нет

Текст #1
Идентификатор                            : 6
Формат                                   : UTF-8
Идентификатор кодека                     : S_TEXT/UTF8
Идентификатор кодека/Информация          : UTF-8 Plain Text
Заголовок                                : форс.
Язык                                     : Russian
Default                                  : Да
Forced                                   : Нет

Текст #2
Идентификатор                            : 7
Формат                                   : UTF-8
Идентификатор кодека                     : S_TEXT/UTF8
Идентификатор кодека/Информация          : UTF-8 Plain Text
Язык                                     : Russian
Default                                  : Нет
Forced                                   : Нет

Текст #3
Идентификатор                            : 8
Формат                                   : UTF-8
Идентификатор кодека                     : S_TEXT/UTF8
Идентификатор кодека/Информация          : UTF-8 Plain Text
Заголовок                                : форс.
Язык                                     : Ukrainian
Default                                  : Нет
Forced                                   : Нет

Текст #4
Идентификатор                            : 9
Формат                                   : UTF-8
Идентификатор кодека                     : S_TEXT/UTF8
Идентификатор кодека/Информация          : UTF-8 Plain Text
Язык                                     : Ukrainian
Default                                  : Нет
Forced                                   : Нет

Текст #5
Идентификатор                            : 10
Формат                                   : UTF-8
Идентификатор кодека                     : S_TEXT/UTF8
Идентификатор кодека/Информация          : UTF-8 Plain Text
Заголовок                                : Forced
Язык                                     : English
Default                                  : Нет
Forced                                   : Нет

Текст #6
Идентификатор                            : 11
Формат                                   : UTF-8
Идентификатор кодека                     : S_TEXT/UTF8
Идентификатор кодека/Информация          : UTF-8 Plain Text
Заголовок                                : Full
Язык                                     : English
Default                                  : Нет
Forced                                   : Нет

Текст #7
Идентификатор                            : 12
Формат                                   : UTF-8
Идентификатор кодека                     : S_TEXT/UTF8
Идентификатор кодека/Информация          : UTF-8 Plain Text
Заголовок                                : SDH
Язык                                     : English
Default                                  : Нет
Forced                                   : Нет

Текст #8
Идентификатор                            : 13
Формат                                   : UTF-8
Идентификатор кодека                     : S_TEXT/UTF8
Идентификатор кодека/Информация          : UTF-8 Plain Text
Заголовок                                : SDH-Colored
Язык                                     : English
Default                                  : Нет
Forced                                   : Нет

Меню
00:00:00.000                             : en:(01)00:00:00:000
00:03:37.008                             : en:(02)00:03:37:008
00:09:55.260                             : en:(03)00:09:55:260
00:13:50.495                             : en:(04)00:13:50:495
00:21:53.644                             : en:(05)00:21:53:644
00:31:17.541                             : en:(06)00:31:17:541
00:37:19.320                             : en:(07)00:37:19:320
00:46:58.731                             : en:(08)00:46:58:731
00:54:36.690                             : en:(09)00:54:36:690
01:06:12.927                             : en:(10)01:06:12:927
01:09:57.649                             : en:(11)01:09:57:649
01:16:48.395                             : en:(12)01:16:48:395
01:24:59.551                             : en:(13)01:24:59:551
01:31:35.198                             : en:(14)01:31:35:198
01:42:36.942                             : en:(15)01:42:36:942
01:50:03.595                             : en:(16)01:50:03:595


pb.wtf



Скачать Робот по имени Чаппи через торрент http://pic.kartinco.top/images/11/lyhgf.jpg Скачать фильм Робот по имени Чаппи через торрент бесплантно в хорошем качестве Описание: Чаппи – высокоинтеллектуальный робот, созданный талантливейшим ученым. В отличие от тысяч аналогов, Чаппи может не только мыслить ... 9.7 10 19
Info! Золотая раздача, скачанное не засчитывается.
Торрент: Зарегистрирован [2015-07-24 19:39] · скачан: 455 раз
Статус: √ проверено
Размер: 5.99 GB
Как cкачать? Как скачать Робот по имени Чаппи через торрент | qTorrent

% Раздел Тема Автор DL S | L
Ultra HD (UHD: 2K, 4K, 8K) — видео сверхвысокой чёткости [ 69.06 GB ] Робот по имени Чаппи / Chappie [2015 UHD BDRemux 2160p] DUB [] +4xAVO bober100 Скачать
1 | 0
Фильмы [HD 720p, 1080p] (Хороший звук DUB, MVO) [ 7.77 GB ] Робот по имени Чаппи / Chappie [2015 BDRip 1080p] 2xDUB () bober100 Скачать
1 | 0
Ultra HD (UHD: 2K, 4K, 8K) — видео сверхвысокой чёткости [ 56.95 GB ] Робот по имени Чаппи / Chappie [2015 UHD WEBRip 2160p ] [USA Transfer] 2xDUB+3xAVO [] bober100 Скачать
1 | 0
Фильмы 2015 [DVDrip, WEB-DLRip, HDrip] [ 1.46 GB ] Робот по имени Чаппи / Chappie [2015 BDRip-AVC] DUB potroks Скачать
1 | 0
Фильмы (HD 720p, 1080p) (48-60 fps) [ 6.81 GB ] Робот по имени Чаппи / Chappie [2015 BDRip 720p / 60 FPS] DUB от R.G. HD-Films -Lexx- Скачать
2 | 0


Последний раз редактировалось: potroks (2015-07-24 19:48), всего редактировалось 1 раз

28-11-2019 20:33  

Отключить всю рекламу на сайте

24-07-2015 19:40 Робот по имени Чаппи Скачать торрент  

добавил Есареваpb.wtf



08-10-2015 00:07 Робот по имени Чаппи Скачать торрент  

Шикарный фильм) советую!pb.wtf



    Дорогой пользователь! Огромная просьба, поблагодарите релизера, оцените раздачу и оставьте свои комментарий, если Вы скачали Робот по имени Чаппи через торрент бесплатно! Внесите свою лепту в развитие PiratBit!
    Комментировать посты могут только пользователи прошедшие не сложную регистрацию
    Показать сообщения:    

    Робот по имени Чаппи через торрент
    Скачать бесплатно Робот по имени Чаппи
    Робот по имени Чаппи скачать торрент
    Робот по имени Чаппи смотреть онлайн
    Cкачать фильм Робот по имени Чаппи бесплатно
    Робот по имени Чаппи скачать торрент в хорошем качестве
    Робот по имени Чаппи смотреть онлайн бесплатно в хорошем качестве


    Вы не можете начинать темы
    Вы не можете отвечать на сообщения
    Вы не можете редактировать свои сообщения
    Вы не можете удалять свои сообщения
    Вы не можете голосовать в опросах
    Вы не можете прикреплять файлы к сообщениям
    Вы можете скачивать файлы