Всегда рабочее зеркало без VPN и Proxy просто перед .vidak.icu напиши любое слово или цифру, Пример http://nxe3.vidak.icu

MVO

Лицензия

1 сезон

1

1 сезон

iTunes

1 сезон

13

1 сезон

Deluxe

pack

Рекомендуем

Пиратка

30

ВАЖНО

RePack

MK11

RePack

jed

RePack

fifa19

RePack

RDR2

RePack

NEED FOR SPEED™ PAYBACK

Кинопоиск HD

6 сезон

 Острые козырьки 6 сезон

Все сериалы

все сериалы на PB.wtf

RePack

FAR CRY 5

Anonymous, нам критически не хватает 2100 руб. на оплату серверов и переферии за МАЙ, помоги нам пожалуйста, вся надежда только на тебя. В благодарность мы отключим тебе всю рекламу на сайте!

×
  
Magnet ссылка

Европа плюс Live 2015 / Europa Plus Live 2015 / [2015 г., TOP MUSIC NON STOP, WEB-DL 720p] pb.wtf

Европа плюс Live 2015 через торрент pb.wtf

Размер: 8.84 GB | Добавлен: 6 лет 11 мес. назад | Торрент скачан:74 раза
Смотреть онлайн Европа плюс Live 2015 | Скачать    Ребята, помогите собрать деньги на оплату серверов!!!

26-07-2015 18:32 Европа плюс Live 2015 Скачать торрент  

Европа плюс Live 2015 / Europa Plus Live 2015

Год выпуска: 2015
Страна: Россия, СТС Love
Жанр: Поп
Продолжительность: 07:11:53
Перевод: Не требуется русский

Учасники: Anton Bruner, AronChupa, Bakermat, Сергей Лазарев, Swanky Tunes, Нюша, John De Sohn, Ёлка, Nabiha, ПИЦЦА, Iowa, Егор Крид, Fat Cat Cinema, Christian Burns, T-Killah, БАНД’ЭРОС, Burito, Jakharta, Tasha G, Базиль, Franky, Paper Man и Винтаж! А Swanky Tunes и Christian Burns, Ёлка, Burito
О музыке: Больше хитов! Больше музыки! Cамые модные и популярные исполнители, любимые треки, гигантский танцпол, шквал эмоций и множество сюрпризов! Все это — Europa Plus LIVE 2015!!! 25 июля в «Лужниках» снова состоялся крупнейший внеэфирный проект Европы Плюс — главный open-air лета!
Качество: WEB-DL 720p
Формат: MPEG-4
Видео кодек: AVC
Аудио кодек:AAC LC
Видео: AVC, 1280x720 (16:9), 2734 kbps, 25 fps, 0,119 bpp
Аудио: AAC LC / 2.0 / 44 kHz / 192 kbps /
Общее
Полное имя : D:\torrent\Europa Plus LIVE 2015.mp4
Формат : MPEG-4
Профиль формата : Base Media / Version 2
Идентификатор кодека : mp42
Размер файла : 8,84 Гбайт
Продолжительность : 7 ч. 11 м.
Режим общего битрейта : Переменный
Общий поток : 2929 Кбит/сек
Дата кодирования : UTC 2015-07-26 03:24:58
Дата пометки : UTC 2015-07-26 03:24:58
gsst : 0
gstd : 25912935
gssd : B5BE6D244HH1437890699539075
gshh : r1---sn-npcpgpm-3w5e.googlevideo.com

Видео
Идентификатор : 1
Формат : AVC
Формат/Информация : Advanced Video Codec
Профиль формата : High@L3.1
Параметр CABAC формата : Да
Параметр ReFrames формата : 1 кадр
Параметр GOP формата : M=1, N=60
Идентификатор кодека : avc1
Идентификатор кодека/Информация : Advanced Video Coding
Продолжительность : 7 ч. 11 м.
Битрейт : 2734 Кбит/сек
Максимальный битрейт : 8664 Кбит/сек
Ширина : 1280 пикселей
Высота : 720 пикселей
Соотношение сторон : 16:9
Режим частоты кадров : Постоянный
Частота кадров : 25,000 кадров/сек
Цветовое пространство : YUV
Субдискретизация насыщенности : 4:2:0
Битовая глубина : 8 бит
Тип развёртки : Прогрессивная
Бит/(Пиксели*Кадры) : 0.119
Размер потока : 8,25 Гбайт (93%)
Дата пометки : UTC 2015-07-26 03:56:34

Аудио
Идентификатор : 2
Формат : AAC
Формат/Информация : Advanced Audio Codec
Профиль формата : LC
Идентификатор кодека : 40
Продолжительность : 7 ч. 11 м.
Вид битрейта : Переменный
Битрейт : 192 Кбит/сек
Максимальный битрейт : 202 Кбит/сек
Каналы : 2 канала
Расположение каналов : Front: L R
Частота : 44,1 КГц
Метод сжатия : С потерями
Размер потока : 593 Мбайт (7%)
Заголовок : IsoMedia File Produced by Google, 5-11-2011
Дата кодирования : UTC 2015-07-26 03:44:06
Дата пометки : UTC 2015-07-26 03:56:34
pb.wtf



Скачать Европа плюс Live 2015 через торрент http://i1.imageban.ru/out/2015/07/26/72381005752b0aef4eeae1432230d4bb.jpg Скачать, смотреть онлайн Европа плюс Live 2015 бесплантно в хорошем качестве Год выпуска: 2015Страна: Россия, СТС LoveЖанр: ПопПродолжительность: 07:11:53Перевод: Не требуется русскийУчасники: Anton Bruner, ... 9.3 10 11
Info! Золотая раздача, скачанное не засчитывается.
Торрент: Зарегистрирован [2015-07-26 18:32] · скачан: 74 раз
Статус: √ проверено
Размер: 8.84 GB
Как cкачать? Как скачать Европа плюс Live 2015 через торрент | UTorrent

28-11-2019 20:33  

Отключить всю рекламу на сайте

25-11-2015 23:15 Европа плюс Live 2015 Скачать торрент  

Встаньте пожалуйста на раздачу,а то скачалось 93 проц. и все.pb.wtf



    Дорогой пользователь! Огромная просьба, поблагодарите релизера, оцените раздачу и оставьте свои комментарий, если Вы скачали Европа плюс Live 2015 через торрент бесплатно!
    Комментировать посты могут только пользователи прошедшие не сложную регистрацию
    Показать сообщения:    

    Европа плюс Live 2015 через торрент
    Скачать бесплатно Европа плюс Live 2015
    Европа плюс Live 2015 скачать торрент
    Европа плюс Live 2015 смотреть онлайн
    Cкачать фильм Европа плюс Live 2015 бесплатно
    Европа плюс Live 2015 скачать торрент в хорошем качестве
    Европа плюс Live 2015 смотреть онлайн бесплатно в хорошем качестве


    Вы не можете начинать темы
    Вы не можете отвечать на сообщения
    Вы не можете редактировать свои сообщения
    Вы не можете удалять свои сообщения
    Вы не можете голосовать в опросах
    Вы не можете прикреплять файлы к сообщениям
    Вы можете скачивать файлы