Ссылка на приватное зеркало нашего сайта всего за 1$. Внимание количество ограничено!!!

2 сезон

iTunes

1 сезон

1

2 сезон

2 сезон

iTunes

1 сезон

RePack

30

Новинка

ВАЖНО

ИГРА 18+

pack

RePack

MK11
pack

Забери бонус

RePack

jed

!!Акция!!

Alien_Rage

RePack

fifa19

RePack

Assassins Creed: Odyssey

RePack

NEED FOR SPEED™ PAYBACK

4 сезон

9 сезон

Бесстыжие 9 сезон

Все сериалы

все сериалы на PB.wtf

RePack

FAR CRY 5
  

2047 – Угроза смерти / 2047: Sights of Death (Алессандро Капоне) [2014, фантастика, боевик, триллер, HDRip, Любительский (одноголосый) [datynet] pb.wtf

2047 – Угроза смерти через торрент pb.wtf

Размер: 1.39 GB | Добавлен: 5 лет 4 мес. назад | Торрент скачан:183 раза
Скачать  

21-07-2015 20:03 2047 – Угроза смерти Скачать торрент  


2047 – Угроза смерти / 2047: Sights of Death


ИНФОРМАЦИЯ:
Год выпуска:2014
Страна: Италия
Жанр: фантастика, боевик, триллер
Продолжительность: 01:29:18
Перевод: Любительский (одноголосый) [datynet]
Режиссер: Алессандро Капоне

В Ролях:


Дэнни Гловер (Sponge), Дэрил Ханна (Major Anderson), Майкл Мэдсен (Lobo), Стивен Болдуин (Ryan Willburn), Рутгер Хауэр (Colonel Asimov), Нева Леони (Tuag), Кай Портман (Evilenko), Тимоти Мартин (Sergeant Coogan), Бенжамин Стендер (Jimmy), Маурицио Тезеи (Private Remi), Марио Опинато (Corporal Jano), Марко Бонини (Corporal Greshnov)

Описание:
2047 год. Планетой руководит жестокая и властная организация, она диктует свои законы, ущемляющие права людей, ничего в этой жизни не происходит без ее вмешательства. Волна, сметающая все на своем пути прокатилась по всему миру. Народ запуган и не делает ничего, чтобы освободиться от этого гнета. Но находится кучка людей, которая восстает против несправедливости. «Зеленая команда» противостоит действиям правительства.

  • Мировая премьера:24 июля 2014

    ТЕХ.ДАННЫЕ:
    Качество: HDRip
    Формат: AVI
    Видео кодек: XviD
    Аудио кодек: AC3
    Видео: XviD, 720x304 (2.35:1), 1683 kbps, 24 fps, 0,321 bpp
    Аудио: AC3 / 5.1 / 48 kHz / 448 kbps / 16 bit


    Код:

    General
    Complete name                            : D:\Торенты\2047.Sights.Of.Death.avi
    Format                                   : AVI
    Format/Info                              : Audio Video Interleave
    File size                                : 1.39 GiB
    Duration                                 : 1h 29mn
    Overall bit rate                         : 2 229 Kbps
    Writing library                          : VirtualDub build 34753/release

    Video
    ID                                       : 0
    Format                                   : MPEG-4 Visual
    Format profile                           : Advanced Simple@L5
    Format settings, BVOP                    : 2
    Format settings, QPel                    : No
    Format settings, GMC                     : No warppoints
    Format settings, Matrix                  : Default (H.263)
    Muxing mode                              : Packed bitstream
    Codec ID                                 : XVID
    Codec ID/Hint                            : XviD
    Duration                                 : 1h 29mn
    Bit rate                                 : 1 684 Kbps
    Width                                    : 720 pixels
    Height                                   : 304 pixels
    Display aspect ratio                     : 2.35:1
    Frame rate                               : 24.000 fps
    Color space                              : YUV
    Chroma subsampling                       : 4:2:0
    Bit depth                                : 8 bits
    Scan type                                : Progressive
    Compression mode                         : Lossy
    Bits/(Pixel*Frame)                       : 0.321
    Stream size                              : 1.05 GiB (76%)
    Writing library                          : XviD 64

    Audio
    ID                                       : 1
    Format                                   : AC-3
    Format/Info                              : Audio Coding 3
    Mode extension                           : CM (complete main)
    Codec ID                                 : 2000
    Duration                                 : 1h 29mn
    Bit rate mode                            : Constant
    Bit rate                                 : 448 Kbps
    Channel(s)                               : 6 channels
    Channel positions                        : Front: L C R, Side: L R, LFE
    Sampling rate                            : 48.0 KHz
    Bit depth                                : 16 bits
    Compression mode                         : Lossy
    Stream size                              : 286 MiB (20%)
    Alignment                                : Aligned on interleaves

    Скриншоты:


    © Оформление by Ворон
    pb.wtf



  • Скачать 2047 – Угроза смерти через торрент http://pic.kartinco.top/images/6/ordi9.jpg Скачать фильм 2047 – Угроза смерти через торрент бесплантно в хорошем качестве Описание: 2047 год. Планетой руководит жестокая и властная организация, она диктует свои законы, ущемляющие права людей, ничего в этой ... 8.8 10 11
    Торрент: Зарегистрирован [2015-07-21 20:03] · скачан: 183 раз
    Статус: T временная
    Размер: 1.39 GB
    Как cкачать? Как скачать 2047 – Угроза смерти через торрент | qTorrent

    % Раздел Тема Автор DL S | L
    Фильмы (Blu-ray, BD-Remux, HDDVD) [ 19.4 GB ] 2047 – Угроза смерти / 2047: Sights of Death [2014 BD Remux Любительский [datynet] Ворон Скачать
    1 | 0
    Фильмы без перевода [ 7.4 GB ] 2047 – Угроза смерти / 2047 - Sights of Death [2014 BDRip 1080p] [ENG] killermax2013 Скачать
    1 | 0

    28-11-2019 20:33  

    Отключить всю рекламу на сайте

    21-07-2015 20:04 2047 – Угроза смерти Скачать торрент  

    Не могу не согласиться

    Цитата:

    отбросы снялись в отбросах чтоб чё-нибудь урвать? )

    Хотя некоторые когда-то сыграли в отличных фильмах)))pb.wtf



    21-07-2015 21:20 2047 – Угроза смерти Скачать торрент  

    Опять русские виноваты?
    Рутгер Хауэр (Colonel Asimov) , Кай Портман (Evilenko) , Марко Бонини (Corporal Greshnov) - Как бы намекают .
    Посмотрел трейлер , чуть не блеванул . Всем приятного просмотра.pb.wtf



    22-07-2015 01:53 2047 – Угроза смерти Скачать торрент  

    Наташа Семьонова зохватила весь мир, таварищ! :Dpb.wtf



    31-07-2015 08:00 2047 – Угроза смерти Скачать торрент  

    четвертый скрин расскрывает всю суть фильиа))))

    Suicide297 писал(а):

    Наташа Семьонова зохватила весь мир, таварищ! :D

    pb.wtf



      Дорогой пользователь! Огромная просьба, поблагодарите релизера, оцените раздачу и оставьте свои комментарий, если Вы скачали 2047 – Угроза смерти через торрент бесплатно! Внесите свою лепту в развитие PiratBit!
      Комментировать посты могут только пользователи прошедшие не сложную регистрацию
      Показать сообщения:    

      2047 – Угроза смерти через торрент
      Скачать бесплатно 2047 – Угроза смерти
      2047 – Угроза смерти скачать торрент
      2047 – Угроза смерти смотреть онлайн
      Cкачать фильм 2047 – Угроза смерти бесплатно
      2047 – Угроза смерти скачать торрент в хорошем качестве
      2047 – Угроза смерти смотреть онлайн бесплатно в хорошем качестве


      Вы не можете начинать темы
      Вы не можете отвечать на сообщения
      Вы не можете редактировать свои сообщения
      Вы не можете удалять свои сообщения
      Вы не можете голосовать в опросах
      Вы не можете прикреплять файлы к сообщениям
      Вы можете скачивать файлы