Всегда рабочее зеркало без VPN и Proxy просто перед .vidak.icu напиши любое слово или цифру, Пример http://2s98.vidak.icu

MVO

MVO

1 сезон

1

1 сезон

iTunes

1 сезон

13

1 сезон

Deluxe

pack

Рекомендуем

Repack

30

ВАЖНО

RePack

MK11

RePack

jed

RePack

fifa19

RePack

RDR2

RePack

NEED FOR SPEED™ PAYBACK

Кинопоиск HD

6 сезон

 Острые козырьки 6 сезон

Все сериалы

все сериалы на PB.wtf

RePack

FAR CRY 5
  
Magnet ссылка

Мичурин (Александр Довженко) [1948, СССР, биография, исторический фильм, DVDRip от AVP Studio] pb.wtf

Мичурин через торрент pb.wtf

Размер: 746 MB | Добавлен: 7 лет назад | Торрент скачан:13 раз
Смотреть онлайн Мичурин | Скачать    Ребята, помогите собрать деньги на оплату серверов!!!

31-07-2015 21:46 Мичурин Скачать торрент  

Мичурин
Страна: СССР
Производство: Мосфильм

Жанр: биография, исторический фильм
Год выпуска: 1948
Продолжительность: 01:34:28

Перевод: Не требуется
Cубтитры: нет
Оригинальная аудиодорожка: русский

Режиссер: Александр Довженко

В ролях:
Григорий Белов, Владимир Соловьев, А.Васильева, Николай Шамин, Ф.Григорьев, Михаил Жаров, Константин Нассонов, Алексей Жильцов, Иван Назаров, Виктор Хохряков, Дмитрий Дубов, Геннадий Печников, Сергей Ценин, Юрий Любимов, В. Исаев, Иван Каширин...

Описание:
Фильм о выдающемся русском селекционере Иване Владимировиче Мичурине. Труд его был настоящим подвигом. Большую часть жизни спутником великого ученого была ужасающая нищета. Долгие годы ученый и его семья вынуждены были жить впроголодь. Мичурин почти безвыездно жил в Козлове, уездном городе Тамбовской губернии. Когда же американцы предложили ему продать свои коллекции и перебраться в США, где ему гарантировали все условия для научной деятельности, он решительно ответил «нет». Фильм четко делится на две половины: предреволюционную и послереволюционную. До революции скромный железнодорожный служащий терпел нужду, в одиночку боролся с природой на своем приусадебном участке, безуспешно пытаясь добиться поддержки правительства. После революции селекционер-самоучка получил неожиданную поддержку революционного правительства, стал в одночасье национальным героем. Он получает орден Ленина, выступает перед молодежью, которая боготворит его. В его честь переименовывается город Козлов...

Источник: DVD5 R5
Качество видео: DVDRip
Формат видео: AVI
Видео кодек: XviD
Аудио кодек: MP3
Видео: 576x432 (4:3), 25 fps, XviD ~ 966 kbps avg, 0.155 bit/pixel
Аудио: 48 kHz, MP3 2.0, 128 kbps

Раздача от:
Общее
Полное имя : Michurin.1948.DVDRip-745_[New-team]_by_AVP_Studio.avi
Формат : AVI
Формат/Информация : Audio Video Interleave
Размер файла : 746 Мбайт
Продолжительность : 1 ч. 34 м.
Общий поток : 1103 Кбит/сек
Программа кодирования : VirtualDubMod 1.5.10.3 | www.virtualdub-fr.org || (build 2550/release)
Библиотека кодирования : VirtualDubMod build 2550/release

Видео
Идентификатор : 0
Формат : MPEG-4 Visual
Профиль формата : Advanced [email protected]
Параметр BVOP формата : 1
Параметр QPel формата : Нет
Параметр GMC формата : Без точки перехода
Параметр матрицы формата : Выборочная
Идентификатор кодека : XVID
Идентификатор кодека/Подсказка : XviD
Продолжительность : 1 ч. 34 м.
Битрейт : 966 Кбит/сек
Ширина : 576 пикселей
Высота : 432 пикселя
Соотношение сторон : 4:3
Частота кадров : 25,000 кадров/сек
Цветовое пространство : YUV
Субдискретизация насыщенности : 4:2:0
Битовая глубина : 8 бит
Тип развёртки : Прогрессивная
Метод сжатия : С потерями
Бит/(Пиксели*Кадры) : 0.155
Размер потока : 652 Мбайт (88%)
Библиотека кодирования : XviD 73

Аудио
Идентификатор : 1
Формат : MPEG Audio
Версия формата : Version 1
Профиль формата : Layer 3
Идентификатор кодека : 55
Идентификатор кодека/Подсказка : MP3
Продолжительность : 1 ч. 34 м.
Вид битрейта : Постоянный
Битрейт : 128 Кбит/сек
Каналы : 2 канала
Частота : 48,0 КГц
Метод сжатия : С потерями
Размер потока : 86,5 Мбайт (12%)
Выравнивание : Соединение по промежуткам
Продолжительность промежутка : 40 мс. (1,00 видеокадр)
Время предзагрузки промежутка : 504 мс.
Библиотека кодирования : LAME3.99r
Настройки программы : -m s -V 4 -q 2 -lowpass 17 -b 128
pb.wtf



Скачать Мичурин через торрент http://s019.radikal.ru/i603/1507/6b/7af2fae9b6de.png Скачать, смотреть онлайн Мичурин бесплантно в хорошем качестве Описание:Фильм о выдающемся русском селекционере Иване Владимировиче Мичурине. Труд его был настоящим подвигом. Большую часть жизни ... 10 10 2
Торрент: Зарегистрирован [2015-07-31 23:43] · скачан: 13 раз
Статус: √ проверено
Размер: 746 MB
Как cкачать? Как скачать Мичурин через торрент | UTorrent

% Раздел Тема Автор DL S | L
Фантастика [ 244 MB ] Артем Мичурин - Умри стоя. Книга 1 [TED 2021 56 kbps MP3] bober100 Скачать
1 | 0
Фантастика [ 2.13 GB ] Артём Мичурин - Ош. Смертные души [Радион Нечаев Олег Кейнз 2021 320 kbps MP3] bober100 Скачать
1 | 0
Фантастика [ 617 MB ] Мичурин Артём Хватов Вячеслав - Еда и патроны-4. Полведра студёной крови MP3 sahambar Скачать
1 | 0
Кино СССР [ 1.46 GB ] Мичурин [1948 СССР биография исторический фильм DVDRip-AVC от AVP Studio] AVP Studio Скачать
1 | 0
Кино СССР [ 1.46 GB ] Мичурин [1948 СССР биография исторический фильм DVDRip от AVP Studio] AVP Studio Скачать
1 | 0
Фантастика [ 643 MB ] Мичурин Артём - Еда и патроны 3. Песни мёртвых соловьев [Андрей Кравец 2015 128 kbps MP3] govoryn Скачать
1 | 0
Фантастика [ 1.1 GB ] Артем Мичурин - Еда и патроны 2. Ренегат. [Хазанович Дмитрий 2013 192 kbps MP3] Энитан Скачать
1 | 0

28-11-2019 20:33  

Отключить вcю реклaмy на сайте

    Дорогой пользователь! Огромная просьба, поблагодарите релизера, оцените раздачу и оставьте свои комментарий, если Вы скачали Мичурин через торрент бесплатно!
    Комментировать посты могут только пользователи прошедшие не сложную регистрацию
    Показать сообщения:    

    Мичурин через торрент
    Скачать бесплатно Мичурин
    Мичурин скачать торрент
    Мичурин смотреть онлайн
    Cкачать фильм Мичурин бесплатно
    Мичурин скачать торрент в хорошем качестве
    Мичурин смотреть онлайн бесплатно в хорошем качестве


    Вы не можете начинать темы
    Вы не можете отвечать на сообщения
    Вы не можете редактировать свои сообщения
    Вы не можете удалять свои сообщения
    Вы не можете голосовать в опросах
    Вы не можете прикреплять файлы к сообщениям
    Вы можете скачивать файлы