Ссылка на приватное зеркало нашего сайта всего за 1$. Внимание количество ограничено!!!

2 сезон

iTunes

1 сезон

1

iTunes

iTunes

iTunes

1 сезон

RePack

30

ИГРА 18+

pack

ВАЖНО

!!Акция!!

Alien_RageХит недели

RePack

MK11
pack

Забери бонус

RePack

jed

!!Акция!!

Alien_Rage

RePack

fifa19

RePack

Assassins Creed: Odyssey

RePack

NEED FOR SPEED™ PAYBACK

4 сезон

9 сезон

Бесстыжие 9 сезон

Все сериалы

все сериалы на PB.wtf

RePack

FAR CRY 5
  

Холодное торжество / Frozen Fever (Крис Бак / Chris Buck, Дженнифер Ли / Jennifer Lee) [2015, США, мультфильм, короткометражка, фэнтези, HDRip, Дубляж - [Звук с TS] pb.wtf

Холодное торжество через торрент pb.wtf

Размер: 157 MB | Добавлен: 5 лет 2 мес. назад | Торрент скачан:324 раза
Скачать  

01-08-2015 02:41 Холодное торжество Скачать торрент  

Холодное торжество / Frozen Fever


  • Год выпуска: 2015
  • Страна: США
  • Жанр: мультфильм, короткометражка, фэнтези, комедия, приключения
  • Продолжительность: 00:07:57
  • Перевод: Дубляж - [Звук с TS]

  • Режиссер: Крис Бак / Chris Buck, Дженнифер Ли / Jennifer Lee
  • В ролях:

    Кристен Белл (Anna, озвучка), Идина Мензел (Elsa, озвучка), Джош Гад (Olaf, озвучка), Джонатан Грофф (Kristoff, озвучка), Сантино Фонтана (Hans, озвучка), Крис Уильямс (Oaken, озвучка), Пол Бриггс (Marshmallow, озвучка)

  • Описание:
    В день рождения Анны, Эльза и Кристофф полны решимости подарить ей лучший праздник, сделанный когда-либо, но ледяные силы Эльзы могут принести больше вреда, чем организация праздника.
  • Рейтинг:



  • Качество: HDRip
  • Формат: :AVI
  • Видео кодек: XviD
  • Аудио кодек: AC3
  • Видео: 720x320 (2.25:1), 2099 kbps, 23,976 fps, 0,380 bpp
  • Аудио №1: Русский 2.0 / 48 kHz / 192 kbps / 16 bit
  • Аудио №2: Английский 5.1 / 48 kHz / 448 kbps / 16 bit
  • Релиз от: GEKADOL

    Код:

    General
    Complete name                            : F:\Frozen.Fever.2015.Dt.HDRip.avi
    Format                                   : AVI
    Format/Info                              : Audio Video Interleave
    File size                                : 157 MiB
    Duration                                 : 7mn 57s
    Overall bit rate                         : 2 754 Kbps
    Writing application                      : VirtualDubMod 1.5.10.3 | www.virtualdub-fr.org || (build 2550/release)
    Writing library                          : VirtualDubMod build 2550/release

    Video
    ID                                       : 0
    Format                                   : MPEG-4 Visual
    Format profile                           : Advanced Simple@L5
    Format settings, BVOP                    : 2
    Format settings, QPel                    : No
    Format settings, GMC                     : No warppoints
    Format settings, Matrix                  : Default (MPEG)
    Codec ID                                 : XVID
    Codec ID/Hint                            : XviD
    Duration                                 : 7mn 57s
    Bit rate                                 : 2 100 Kbps
    Width                                    : 720 pixels
    Height                                   : 320 pixels
    Display aspect ratio                     : 2.25:1
    Frame rate                               : 23.976 fps
    Color space                              : YUV
    Chroma subsampling                       : 4:2:0
    Bit depth                                : 8 bits
    Scan type                                : Progressive
    Compression mode                         : Lossy
    Bits/(Pixel*Frame)                       : 0.380
    Stream size                              : 120 MiB (76%)
    Writing library                          : XviD 1.2.1 (UTC 2008-12-04)

    Audio #1
    ID                                       : 1
    Format                                   : AC-3
    Format/Info                              : Audio Coding 3
    Mode extension                           : CM (complete main)
    Codec ID                                 : 2000
    Duration                                 : 7mn 57s
    Bit rate mode                            : Constant
    Bit rate                                 : 192 Kbps
    Channel(s)                               : 2 channels
    Channel positions                        : Front: L R
    Sampling rate                            : 48.0 KHz
    Bit depth                                : 16 bits
    Compression mode                         : Lossy
    Stream size                              : 10.9 MiB (7%)
    Alignment                                : Split accross interleaves
    Interleave, duration                     : 42 ms (1.00 video frame)
    Interleave, preload duration             : 500 ms

    Audio #2
    ID                                       : 2
    Format                                   : AC-3
    Format/Info                              : Audio Coding 3
    Mode extension                           : CM (complete main)
    Codec ID                                 : 2000
    Duration                                 : 7mn 57s
    Bit rate mode                            : Constant
    Bit rate                                 : 448 Kbps
    Channel(s)                               : 6 channels
    Channel positions                        : Front: L C R, Side: L R, LFE
    Sampling rate                            : 48.0 KHz
    Bit depth                                : 16 bits
    Compression mode                         : Lossy
    Stream size                              : 25.5 MiB (16%)
    Alignment                                : Split accross interleaves
    Interleave, duration                     : 42 ms (1.00 video frame)
    Interleave, preload duration             : 500 ms




    Скриншоты:



    pb.wtf



  • Скачать Холодное торжество через торрент http://i1.imageban.ru/out/2015/08/01/c94d8c5f909ffe1f8c4f6e6c22f30f3f.jpg Скачать фильм Холодное торжество через торрент бесплантно в хорошем качестве Описание: В день рождения Анны, Эльза и Кристофф полны решимости подарить ей лучший праздник, сделанный когда-либо, но ледяные силы Эльзы ... 9.9 10 8
    Торрент: Зарегистрирован [2015-08-01 02:41] · скачан: 324 раз
    Статус: T временная
    Размер: 157 MB
    Как cкачать? Как скачать Холодное торжество через торрент | qTorrent

    % Раздел Тема Автор DL S | L
    T Короткометражные мультфильмы (HD Video) [ 661 MB ] Холодное торжество / Frozen Fever [2015 мультфильм короткометражка BDRip 1080p - [Звук с TS] GEKADOL Скачать
    1 | 0

    28-11-2019 20:33  

    Отключить всю рекламу на сайте

      Дорогой пользователь! Огромная просьба, поблагодарите релизера, оцените раздачу и оставьте свои комментарий, если Вы скачали Холодное торжество через торрент бесплатно! Внесите свою лепту в развитие PiratBit!
      Комментировать посты могут только пользователи прошедшие не сложную регистрацию
      Показать сообщения:    

      Холодное торжество через торрент
      Скачать бесплатно Холодное торжество
      Холодное торжество скачать торрент
      Холодное торжество смотреть онлайн
      Cкачать фильм Холодное торжество бесплатно
      Холодное торжество скачать торрент в хорошем качестве
      Холодное торжество смотреть онлайн бесплатно в хорошем качестве


      Вы не можете начинать темы
      Вы не можете отвечать на сообщения
      Вы не можете редактировать свои сообщения
      Вы не можете удалять свои сообщения
      Вы не можете голосовать в опросах
      Вы не можете прикреплять файлы к сообщениям
      Вы можете скачивать файлы