Ссылка на приватное зеркало нашего сайта всего за 1$. Внимание количество ограничено!!!

2 сезон

iTunes

1 сезон

1

2 сезон

2 сезон

iTunes

1 сезон

RePack

30

Ultimate

ВАЖНО

ИГРА 18+

pack

RePack

MK11
pack

Забери бонус

RePack

jed

!!Акция!!

Alien_Rage

RePack

fifa19

RePack

Assassins Creed: Odyssey

RePack

NEED FOR SPEED™ PAYBACK

4 сезон

9 сезон

Бесстыжие 9 сезон

Все сериалы

все сериалы на PB.wtf

RePack

FAR CRY 5
  

Переростки на краю света / The Inbetweeners 2 (Дэймон Бисли / Damon Beesley, Иэн Моррис / Iain Morris) [2014, Великобритания, комедия, BDRip-AVC] MVO [To4ka.TV & Kiitos.TV] + ENG + SUB pb.wtf

Переростки на краю света через торрент pb.wtf

Размер: 2.1 GB | Добавлен: 5 лет 3 мес. назад | Торрент скачан:367 раз
Скачать  

06-08-2015 10:36 Переростки на краю света Скачать торрент  

Переростки на краю света / The Inbetweeners 2
«Когда у нас зима, на другом краю Земли лето»


  • Год выпуска: 2014
  • Страна: Великобритания
  • Жанр: комедия
  • Продолжительность: 01:32:00
  • Перевод: Любительский многоголосый [To4ka.TV & Kiitos.TV]
  • Субтитры: английские, английские, русские
  • Режиссер: Дэймон Бисли / Damon Beesley, Иэн Моррис / Iain Morris
  • В ролях:

    Саймон Бёрд (Will McKenzie), Джеймс Бакли (Jay Cartwright), Блейк Харрисон (Neil Sutherland), Джо Томас (Simon Cooper), Эмили Беррингтон (Katie), Фредди Строма (Ben), Дэвид Филд (Uncle Bryan), Белинда Стюарт-Уилсон (Polly MacKenzie), Тамла Кари (Lucy), Лидия Роуз Бьюли (Jane), Дэвид Шааль (Terry), Алекс МакКуин (Kevin Sutherland)

  • Описание:
    Окончив школу, четверо подростков, полные радужных надежд оттянуться по полной с девчонками, отправляются в путешествие по Австралии, которую называют секс - столицей мира и где девственность считается, чуть ли не преступлением.
  • Рейтинг:



  • Качество: BDRip-AVC
  • Формат: :MKV
  • Видео кодек: AVC
  • Аудио кодек: AC3
  • Видео: 1024x428 (2.40:1), 2500 kbps, 25 fps, 0,228 bpp
  • Аудио №1: английский / 5.1 / 48 kHz / 384 kbps / 16 bit
  • Аудио №2: русский / 5.1 / 48 kHz / 384 kbps / 16 bit |[To4ka.TV & Kiitos.TV]|
  • Релиз от: GEKADOL

    Код:

    General
    Unique ID                                : 210546005440488170125174125468787105666 (0x9E65AF8714481A1BB2599300737B5F82)
    Complete name                            : D:\Фильмы\The.Inbetweeners.2.2014.AVC.BluRay.x264.mkv
    Format                                   : Matroska
    Format version                           : Version 4 / Version 2
    File size                                : 2.10 GiB
    Duration                                 : 1h 32mn
    Overall bit rate                         : 3 262 Kbps
    Encoded date                             : UTC 2015-08-06 10:05:58
    Writing application                      : mkvmerge v8.1.0 ('Psychedelic Postcard') 32bit
    Writing library                          : libebml v1.3.1 + libmatroska v1.4.2

    Video
    ID                                       : 1
    Format                                   : AVC
    Format/Info                              : Advanced Video Codec
    Format profile                           : High@L4.1
    Format settings, CABAC                   : Yes
    Format settings, ReFrames                : 2 frames
    Format settings, GOP                     : M=4, N=10
    Codec ID                                 : V_MPEG4/ISO/AVC
    Duration                                 : 1h 32mn
    Bit rate                                 : 2 500 Kbps
    Width                                    : 1 024 pixels
    Height                                   : 428 pixels
    Display aspect ratio                     : 2.40:1
    Frame rate mode                          : Variable
    Frame rate                               : 25.000 fps
    Standard                                 : Component
    Color space                              : YUV
    Chroma subsampling                       : 4:2:0
    Bit depth                                : 8 bits
    Scan type                                : Progressive
    Bits/(Pixel*Frame)                       : 0.228
    Stream size                              : 1.56 GiB (74%)
    Writing library                          : x264 core 144 r2525
    Encoding settings                        : cabac=1 / ref=2 / deblock=1:-1:-1 / analyse=0x3:0x133 / me=hex / subme=7 / psy=1 / psy_rd=1.00:0.10 / mixed_ref=0 / me_range=16 / chroma_me=1 / trellis=1 / 8x8dct=1 / cqm=0 / deadzone=21,11 / fast_pskip=1 / chroma_qp_offset=-3 / threads=6 / lookahead_threads=1 / sliced_threads=0 / nr=0 / decimate=1 / interlaced=0 / bluray_compat=0 / constrained_intra=0 / bframes=3 / b_pyramid=0 / b_adapt=1 / b_bias=0 / direct=3 / weightb=1 / open_gop=1 / weightp=2 / keyint=10 / keyint_min=6 / scenecut=40 / intra_refresh=0 / rc_lookahead=40 / rc=cbr / mbtree=1 / bitrate=2500 / ratetol=1.0 / qcomp=0.60 / qpmin=10 / qpmax=69 / qpstep=4 / vbv_maxrate=2500 / vbv_bufsize=24000 / nal_hrd=none / filler=0 / ip_ratio=1.40 / aq=3:1.00
    Default                                  : Yes
    Forced                                   : No

    Audio #1
    ID                                       : 2
    Format                                   : AC-3
    Format/Info                              : Audio Coding 3
    Mode extension                           : CM (complete main)
    Codec ID                                 : A_AC3
    Duration                                 : 1h 32mn
    Bit rate mode                            : Constant
    Bit rate                                 : 384 Kbps
    Channel(s)                               : 6 channels
    Channel positions                        : Front: L C R, Side: L R, LFE
    Sampling rate                            : 48.0 KHz
    Bit depth                                : 16 bits
    Compression mode                         : Lossy
    Delay relative to video                  : -40ms
    Stream size                              : 253 MiB (12%)
    Language                                 : English
    Default                                  : No
    Forced                                   : No

    Audio #2
    ID                                       : 5
    Format                                   : AC-3
    Format/Info                              : Audio Coding 3
    Mode extension                           : CM (complete main)
    Codec ID                                 : A_AC3
    Duration                                 : 1h 32mn
    Bit rate mode                            : Constant
    Bit rate                                 : 384 Kbps
    Channel(s)                               : 6 channels
    Channel positions                        : Front: L C R, Side: L R, LFE
    Sampling rate                            : 48.0 KHz
    Bit depth                                : 16 bits
    Compression mode                         : Lossy
    Delay relative to video                  : -40ms
    Stream size                              : 253 MiB (12%)
    Language                                 : Russian
    Default                                  : Yes
    Forced                                   : No

    Text #1
    ID                                       : 3
    Format                                   : VobSub
    Muxing mode                              : zlib
    Codec ID                                 : S_VOBSUB
    Codec ID/Info                            : The same subtitle format used on DVDs
    Language                                 : English
    Default                                  : No
    Forced                                   : No

    Text #2
    ID                                       : 4
    Format                                   : UTF-8
    Codec ID                                 : S_TEXT/UTF8
    Codec ID/Info                            : UTF-8 Plain Text
    Language                                 : English
    Default                                  : No
    Forced                                   : No

    Text #3
    ID                                       : 6
    Format                                   : UTF-8
    Codec ID                                 : S_TEXT/UTF8
    Codec ID/Info                            : UTF-8 Plain Text
    Language                                 : Russian
    Default                                  : No
    Forced                                   : No

    Menu
    00:00:00.000                             : en:00:00:00.000
    00:06:38.200                             : en:00:06:38.200
    00:10:47.720                             : en:00:10:47.720
    00:17:03.600                             : en:00:17:03.600
    00:22:20.200                             : en:00:22:20.200
    00:27:17.640                             : en:00:27:17.640
    00:32:54.200                             : en:00:32:54.200
    00:37:33.800                             : en:00:37:33.800
    00:42:32.000                             : en:00:42:32.000
    00:48:33.280                             : en:00:48:33.280
    00:54:50.280                             : en:00:54:50.280
    00:59:42.480                             : en:00:59:42.480
    01:05:05.240                             : en:01:05:05.240
    01:11:27.520                             : en:01:11:27.520
    01:17:15.240                             : en:01:17:15.240
    01:22:31.000                             : en:01:22:31.000




    Скриншоты:


    pb.wtf



  • Скачать Переростки на краю света через торрент http://i5.imageban.ru/out/2015/08/06/d8d103a4bb378c3212b1b40e89345f92.jpg Скачать фильм Переростки на краю света через торрент бесплантно в хорошем качестве Описание: Окончив школу, четверо подростков, полные радужных надежд оттянуться по полной с девчонками, отправляются в путешествие по ... 9.5 10 11
    Торрент: Зарегистрирован [2015-08-06 10:36] · скачан: 367 раз
    Статус: √ проверено
    Размер: 2.1 GB
    Как cкачать? Как скачать Переростки на краю света через торрент | qTorrent

    28-11-2019 20:33  

    Отключить всю рекламу на сайте

    06-08-2015 11:10 Переростки на краю света Скачать торрент  

    название конечно топpb.wtf



    06-08-2015 11:50 Переростки на краю света Скачать торрент  

    Цитата:

    Переростки на краю света / The Inbetweeners 2 (Дэймон Бисли / Damon Beesley, Иэн Моррис / Iain Morris) [2014, Великобритания, комедия, BDRip-AVC) MVO [To4ka.TV & Kiitos.TV] + ENG + SUB

    очень хороший веселый фильм,понравился,смотреть всем.pb.wtf



    06-08-2015 16:18 Переростки на краю света Скачать торрент  

    shoeone писал(а):

    название конечно топ

    "Передоросли" лучше звучит roflpb.wtf



      Дорогой пользователь! Огромная просьба, поблагодарите релизера, оцените раздачу и оставьте свои комментарий, если Вы скачали Переростки на краю света через торрент бесплатно! Внесите свою лепту в развитие PiratBit!
      Комментировать посты могут только пользователи прошедшие не сложную регистрацию
      Показать сообщения:    

      Переростки на краю света через торрент
      Скачать бесплатно Переростки на краю света
      Переростки на краю света скачать торрент
      Переростки на краю света смотреть онлайн
      Cкачать фильм Переростки на краю света бесплатно
      Переростки на краю света скачать торрент в хорошем качестве
      Переростки на краю света смотреть онлайн бесплатно в хорошем качестве


      Вы не можете начинать темы
      Вы не можете отвечать на сообщения
      Вы не можете редактировать свои сообщения
      Вы не можете удалять свои сообщения
      Вы не можете голосовать в опросах
      Вы не можете прикреплять файлы к сообщениям
      Вы можете скачивать файлы