Всегда рабочее зеркало без VPN и Proxy просто перед .vidak.icu напиши любое слово или цифру, Пример http://w18r.vidak.icu

iTunes

2 сезон

1 сезон

1

1 сезон

iTunes

2 сезон

13

1 сезон

Deluxe

pack

Рекомендуем

Пиратка

30

ВАЖНО

RePack

MK11

RePack

jed

RePack

fifa19

RePack

RDR2

RePack

NEED FOR SPEED™ PAYBACK

Кинопоиск HD

6 сезон

 Острые козырьки 6 сезон

Все сериалы

все сериалы на PB.wtf

RePack

FAR CRY 5

Anonymous, нам критически не хватает 5601 руб. на оплату серверов и переферии за Апрель, помоги нам пожалуйста, вся надежда только на тебя. В благодарность мы отключим тебе всю рекламу на сайте!

×
  
Magnet ссылка

Восставший из ада 6: Поиски ада / Hellraiser: Hellseeker (Рик Бота) [2002 г., ужасы, триллер, детекти, HDRip, Авторский (Гаврилов)] pb.wtf

Восставший из ада 6: Поиски ада через торрент pb.wtf

Размер: 1.67 GB | Добавлен: 6 лет 9 мес. назад | Торрент скачан:3 раза
Смотреть онлайн Восставший из ада 6: Поиски ада | Скачать    Ребята, помогите собрать деньги на оплату серверов!!!

14-08-2015 15:40 Восставший из ада 6: Поиски ада Скачать торрент  

Восставший из ада 6: Поиски ада / Hellraiser: HellseekerГод выпуска: 2002
Страна: Канада, США
Жанр: ужасы, триллер, детекти
Продолжительность: 01:28:52
Перевод: Авторский (Гаврилов)
Субтитры: Нет

Режиссер: Рик Бота
Продюссер: Рон Шмидт, Джесси Бердинка, Майкл Лихи
Сценарий: Карл В. ДюПре, Тим Дэй, Клайв Баркер

Бюджет: $3 000 000
Премьера в мире: 15 октября 2002



В ролях: Дин Уинтерс, Эшли Лоуренс, Даг Брэдли, Рэйчел Хейуорд, Сара-Джейн Редмонд, Джоди Томпсон, Каарен Де Зилва, Уильям С. Тейлор, Майкл Роджерс

Описание: Спустя месяц после автокатастрофы, когда Тревор пришел в себя, выясняется, что тело его жены Кирсти так и не было найдено!
Он возвращается к работе, но с ним начинают происходить ужасные вещи. Тревор оказывается в адском лабиринте, где непостижимым кошмаром сплелись жизнь и смерть. И он должен заплатить цену прежде, чем узнает ответ…

Качество: HDRip | BDRip 1080p
Формат: AVI
Видео кодек: XviD
Аудио кодек: AC3
Видео: 704x384 (1.83:1), 23.976 fps, XviD build 50 ~2490 kbps avg, 0.38 bit/pixel
Аудио: 48 kHz, AC3 Dolby Digital, 2/0 (L,R) ch, ~192 kbps



Автор рипа: Dean24





Общее
Полное имя : D:\Мои документы\Фильмы\Сайт\Hellraiser.Hellseeker.HDRip.avi
Формат : AVI
Формат/Информация : Audio Video Interleave
Размер файла : 1,67 Гбайт
Продолжительность : 1 ч. 28 м.
Общий поток : 2692 Кбит/сек
Программа кодирования : VirtualDubMod 1.5.10.3 | (build 2550/release)
Библиотека кодирования : VirtualDubMod build 2550/release

Видео
Идентификатор : 0
Формат : MPEG-4 Visual
Профиль формата : Advanced Simple@L5
Параметр BVOP формата : 4
Параметр QPel формата : Нет
Параметр GMC формата : Без точки перехода
Параметр матрицы формата : Default (H.263)
Идентификатор кодека : XVID
Идентификатор кодека/Подсказка : XviD
Продолжительность : 1 ч. 28 м.
Битрейт : 2491 Кбит/сек
Ширина : 704 пикселя
Высота : 384 пикселя
Соотношение сторон : 1,85:1
Частота кадров : 23,976 кадра/сек
Цветовое пространство : YUV
Субдискретизация насыщенности : 4:2:0
Битовая глубина : 8 бит
Тип развёртки : Прогрессивная
Метод сжатия : С потерями
Бит/(Пиксели*Кадры) : 0.384
Размер потока : 1,55 Гбайт (93%)
Библиотека кодирования : XviD 1.2.1 (UTC 2008-12-04)

Аудио
Идентификатор : 1
Формат : AC-3
Формат/Информация : Audio Coding 3
Расширение режима : CM (complete main)
Параметр Endianness формата : Big
Идентификатор кодека : 2000
Продолжительность : 1 ч. 28 м.
Вид битрейта : Постоянный
Битрейт : 192 Кбит/сек
Каналы : 2 канала
Расположение каналов : Front: L R
Частота : 48,0 КГц
Битовая глубина : 16 бит
Метод сжатия : С потерями
Размер потока : 122 Мбайт (7%)
Выравнивание : Разделение по промежуткам
Продолжительность промежутка : 42 мс. (1,00 видеокадр)
Время предзагрузки промежутка : 500 мс.

pb.wtf



Скачать Восставший из ада 6: Поиски ада через торрент http://i72.fastpic.ru/big/2015/0814/59/1176cb6c594068969f3e32f8133a2d59.jpg Скачать, смотреть онлайн Восставший из ада 6: Поиски ада бесплантно в хорошем качестве Описание: Спустя месяц после автокатастрофы, когда Тревор пришел в себя, выясняется, что тело его жены Кирсти так и не было найдено!Он ... 10 10 2
Info! Золотая раздача, скачанное не засчитывается.
Торрент: Зарегистрирован [2015-08-14 15:40] · скачан: 3 раз
Статус: √ проверено
Размер: 1.67 GB
Как cкачать? Как скачать Восставший из ада 6: Поиски ада через торрент | UTorrent

28-11-2019 20:33  

Отключить всю рекламу на сайте

14-08-2015 15:43 Восставший из ада 6: Поиски ада Скачать торрент  

Получился не стандартный размер. Пока не понял, с чем это связано, ибо до риповки ставил один битрейт, а на выходе получил другой, от этого и размер подскочил. Косяк проги, или глюк не знаю, сейчас буду тестить на тест-скриптах. Во всяком случае, на качестве рипа это не отразилось)




1-я часть
2-я часть
3-я часть
4-я часть
5-я частьpb.wtf



14-08-2015 16:33 Восставший из ада 6: Поиски ада Скачать торрент  

Друзья, кто знает и рипует в xvid4 psp 5, напишите в личку)pb.wtf



14-08-2015 17:11 Восставший из ада 6: Поиски ада Скачать торрент  

а есть в блю рей рип качестве 1080р ?!pb.wtf



07-05-2016 11:46 Восставший из ада 6: Поиски ада Скачать торрент  

фильм испортили в трешpb.wtf



    Дорогой пользователь! Огромная просьба, поблагодарите релизера, оцените раздачу и оставьте свои комментарий, если Вы скачали Восставший из ада 6: Поиски ада через торрент бесплатно!
    Комментировать посты могут только пользователи прошедшие не сложную регистрацию
    Показать сообщения:    

    Восставший из ада 6: Поиски ада через торрент
    Скачать бесплатно Восставший из ада 6: Поиски ада
    Восставший из ада 6: Поиски ада скачать торрент
    Восставший из ада 6: Поиски ада смотреть онлайн
    Cкачать фильм Восставший из ада 6: Поиски ада бесплатно
    Восставший из ада 6: Поиски ада скачать торрент в хорошем качестве
    Восставший из ада 6: Поиски ада смотреть онлайн бесплатно в хорошем качестве


    Вы не можете начинать темы
    Вы не можете отвечать на сообщения
    Вы не можете редактировать свои сообщения
    Вы не можете удалять свои сообщения
    Вы не можете голосовать в опросах
    Вы не можете прикреплять файлы к сообщениям
    Вы можете скачивать файлы