MEGA SALE -50% FORZA HORIZON 4 ULTIMATE+ВСЕ DLC+ОНЛАЙН всего за 599р. 299 руб. (супер цена). Внимание количество ограничено!!!

iTunes

1+1

iTunes

мы

iTunes

1

iTunes

Чернобыль

1 сезон

Ральф против интернета

Лицензия

ПШазам

Лицензия

Игра престолов

Лицензия

30
pack

ВАЖНО

!!Акция!!

Alien_RageХит недели

RePack

Resident Evil 21

ИГРА 18+

pack

RePack

Metro:Exodus

!!Акция!!

Alien_Rage

RePack

fifa19

RePack

Assassins Creed: Odyssey

RePack

NEED FOR SPEED™ PAYBACK

3 сезон

9 сезон

Бесстыжие 9 сезон

Все сериалы

все сериалы на PB.wtf

RePack

FAR CRY 5
Ребята, катастрофически не хватает 7730р. для оплаты серверов за ИЮЛЬ (всвязи с блокировками трафик упал в 3 раза), 1-2р., выручайте.
  

Адамовы яблоки / Adams æbler (Андерс Томас Йенсен / Anders Thomas Jensen) [ 2005 , Дания, Германия , драма, комедия, криминал , BDRip 720p ] MVO + Original pb.wtf

Адамовы яблоки через торрент pb.wtf

Размер: 6.1 GB | Добавлен: 4 года назад | Торрент скачан:72 раза
Скачать  

17-08-2015 15:12 Адамовы яблоки Скачать торрент  

Адамовы яблоки / Adams æbler

Год выпуска: 2005
Страна: Дания, Германия
Жанр: драма, комедия, криминал
Продолжительность: 01:35:04
Перевод:
|Профессиональный (многоголосый, закадровый) Руслан Габидуллин, Петр Гланц и Инна Королёва|
Субтитры: немецкие, английские

Режиссер: Андерс Томас Йенсен / Anders Thomas Jensen
В ролях: Ульрих Томсен (Adam Pedersen), Мадс Миккельсен (Ivan), Николас Бро (Gunnar), Паприка Стеэн (Sarah Svendsen), Али Казим (Khalid), Оле Теструп (Dr. Kolberg), Николай Ли Каас (Holger), Гирд Лофквист (Poul Nordkap), Ларс Ранте (Esben), Петер Райхгардт (Nalle), Томас Виллум Йенсен (Arne), Питер Ламберт (Jørgen)
Описание:
Нео-нацист, приговорённый к общественным работам в церкви, сталкивается с крайне праведным священником.

Рейтинг

MPAA: R - Лицам до 17 лет обязательно присутствие взрослого

Качество: BDRip 720p | Adams æbler 2005 720p BluRay DD5.1 x264-CRiSC
Формат: MKV
Видео кодек: AVC
Аудио кодек: AC3
Видео: AVC, 1280x558 (2.25:1), 7727 kbps, 23,976 fps, 0,451 bpp
Аудио №1: русский / AC3 / 5.1 / 48 kHz / 640 kbps / 16 bit |MVO|
Аудио №2: Danish / AC3 / 5.1 / 48 kHz / 640 kbps / 16 bit
Работа со звуком: messafan

Цитата:

  • Дорожка №1 получена наложением чистого голоса на центр декодированного оригинального DTS-HD.
  • Перевод: Леонид Векшин.
  • Озвучка производилась под PAL DVD, для NTSC Blu-Ray все фразы расставлялись заново вручную мной, никаких перетяжек не производилось, сохранена тональность и оригинальной и русской дорожек. Количество резок перевалило за тысячу

Код:

General
Unique ID                                : 244901541457289226587801026156180191528 (0xB83E523AF1BD345092CA3A230B76B928)
Complete name                            : Adam's.Apples.2005.720p.BluRay.Rus.Dan.CasStudio.mkv
Format                                   : Matroska
Format version                           : Version 4 / Version 2
File size                                : 6.10 GiB
Duration                                 : 1h 35mn
Overall bit rate                         : 9 191 Kbps
Movie name                               : Adams ?bler (2005) - release by messafan for CasStudio
Encoded date                             : UTC 2015-08-17 13:21:52
Writing application                      : mkvmerge v6.7.0 ('Back to the Ground') 64bit built on Jan  8 2014 15:10:52
Writing library                          : libebml v1.3.0 + libmatroska v1.4.1

Video
ID                                       : 1
Format                                   : AVC
Format/Info                              : Advanced Video Codec
Format profile                           : High@L4.1
Format settings, CABAC                   : Yes
Format settings, ReFrames                : 11 frames
Codec ID                                 : V_MPEG4/ISO/AVC
Duration                                 : 1h 35mn
Bit rate                                 : 7 728 Kbps
Width                                    : 1 280 pixels
Height                                   : 558 pixels
Display aspect ratio                     : 2.25:1
Frame rate                               : 23.976 fps
Color space                              : YUV
Chroma subsampling                       : 4:2:0
Bit depth                                : 8 bits
Scan type                                : Progressive
Bits/(Pixel*Frame)                       : 0.451
Stream size                              : 5.13 GiB (84%)
Writing library                          : x264 core 146 r2538kMod 121396c
Encoding settings                        : cabac=1 / ref=11 / deblock=1:-3:-3 / analyse=0x3:0x133 / me=umh / subme=10 / psy=1 / fade_compensate=0.00 / psy_rd=1.00:0.00 / mixed_ref=1 / me_range=64 / chroma_me=1 / trellis=2 / 8x8dct=1 / cqm=0 / deadzone=21,11 / fast_pskip=0 / chroma_qp_offset=-2 / threads=12 / lookahead_threads=2 / sliced_threads=0 / nr=0 / decimate=0 / interlaced=0 / bluray_compat=0 / constrained_intra=0 / fgo=0 / bframes=7 / b_pyramid=2 / b_adapt=2 / b_bias=0 / direct=3 / weightb=1 / open_gop=0 / weightp=2 / keyint=250 / keyint_min=23 / scenecut=40 / intra_refresh=0 / rc_lookahead=40 / rc=crf / mbtree=0 / crf=17.0000 / qcomp=0.75 / qpmin=0 / qpmax=69 / qpstep=4 / vbv_maxrate=50000 / vbv_bufsize=62500 / crf_max=0.0 / nal_hrd=none / filler=0 / ip_ratio=1.30 / pb_ratio=1.20 / aq=3:0.60
Language                                 : Danish
Default                                  : Yes
Forced                                   : No
Color primaries                          : BT.709-5, BT.1361, IEC 61966-2-4, SMPTE RP177
Transfer characteristics                 : BT.709-5, BT.1361
Matrix coefficients                      : BT.709-5, BT.1361, IEC 61966-2-4 709, SMPTE RP177

Audio #1
ID                                       : 2
Format                                   : AC-3
Format/Info                              : Audio Coding 3
Mode extension                           : CM (complete main)
Codec ID                                 : A_AC3
Duration                                 : 1h 35mn
Bit rate mode                            : Constant
Bit rate                                 : 640 Kbps
Channel(s)                               : 6 channels
Channel positions                        : Front: L C R, Side: L R, LFE
Sampling rate                            : 48.0 KHz
Bit depth                                : 16 bits
Compression mode                         : Lossy
Stream size                              : 435 MiB (7%)
Title                                    : Rus MVO DD5.1 @ 640 kbps
Language                                 : Russian
Default                                  : Yes
Forced                                   : No

Audio #2
ID                                       : 3
Format                                   : AC-3
Format/Info                              : Audio Coding 3
Mode extension                           : CM (complete main)
Codec ID                                 : A_AC3
Duration                                 : 1h 35mn
Bit rate mode                            : Constant
Bit rate                                 : 640 Kbps
Channel(s)                               : 6 channels
Channel positions                        : Front: L C R, Side: L R, LFE
Sampling rate                            : 48.0 KHz
Bit depth                                : 16 bits
Compression mode                         : Lossy
Stream size                              : 435 MiB (7%)
Title                                    : Dan DD5.1 @ 640 kbps
Language                                 : Danish
Default                                  : No
Forced                                   : No

Text #1
ID                                       : 4
Format                                   : UTF-8
Codec ID                                 : S_TEXT/UTF8
Codec ID/Info                            : UTF-8 Plain Text
Title                                    : Ger sub (BD)
Language                                 : German
Default                                  : No
Forced                                   : No

Text #2
ID                                       : 5
Format                                   : UTF-8
Codec ID                                 : S_TEXT/UTF8
Codec ID/Info                            : UTF-8 Plain Text
Title                                    : Eng sub (OCR'd and synced from Nordisk Film DVD)
Language                                 : English
Default                                  : No
Forced                                   : No

Menu
00:00:00.000                             : en:00:00:00.000
00:08:07.987                             : en:00:08:07.987
00:15:20.586                             : en:00:15:20.586
00:22:09.662                             : en:00:22:09.662
00:31:33.141                             : en:00:31:33.141
00:37:48.766                             : en:00:37:48.766
00:48:14.433                             : en:00:48:14.433
00:57:58.100                             : en:00:57:58.100
01:05:00.271                             : en:01:05:00.271
01:11:01.632                             : en:01:11:01.632
01:19:13.457                             : en:01:19:13.457
01:24:46.164                             : en:01:24:46.164
01:32:09.357                             : en:01:32:09.357


pb.wtf



Скачать Адамовы яблоки через торрент http://i71.fastpic.ru/big/2015/0817/29/87b857054501ba316c4fa94eaeb10929.jpg Скачать фильм Адамовы яблоки через торрент бесплантно в хорошем качестве Описание: Нео-нацист, приговорённый к общественным работам в церкви, сталкивается с крайне праведным священником.Рейтинг MPAA: R - Лицам ... 9.5 10 6
Info! Золотая раздача, скачанное не засчитывается.
Торрент: Зарегистрирован [2015-08-17 15:12] · скачан: 72 раз
Статус: √ проверено
Размер: 6.1 GB
Как cкачать? Как скачать Адамовы яблоки через торрент | qTorrent


>> Регистрируемся здесь <<






Отзывы и комментарии о схеме читаем и пишем здесь: ---> Отзывы и комментарии о схеме

Новые благодарочки в телеграм довольных пользователей:
скриншот   скриншот   скриншот   скриншот   скриншот

15-05-2019 13:18 Адамовы яблоки Скачать торрент  

раздайте,плзpb.wtf



    Дорогой пользователь! Огромная просьба, поблагодарите релизера, оцените раздачу и оставьте свои комментарий, если Вы скачали Адамовы яблоки через торрент бесплатно! Внесите свою лепту в развитие PiratBit!
    Комментировать посты могут только пользователи прошедшие не сложную регистрацию
    Показать сообщения:    

    Адамовы яблоки через торрент
    Скачать бесплатно Адамовы яблоки
    Адамовы яблоки скачать торрент
    Адамовы яблоки смотреть онлайн
    Cкачать фильм Адамовы яблоки бесплатно
    Адамовы яблоки скачать торрент в хорошем качестве
    Адамовы яблоки смотреть онлайн бесплатно в хорошем качестве


    Вы не можете начинать темы
    Вы не можете отвечать на сообщения
    Вы не можете редактировать свои сообщения
    Вы не можете удалять свои сообщения
    Вы не можете голосовать в опросах
    Вы не можете прикреплять файлы к сообщениям
    Вы можете скачивать файлы