Marvel's Avengers Deluxe Edition (супер цена) 159р. Внимание количество ограничено!!!

2 сезон

iTunes

iTunes

1

iTunes

iTunes

iTunes

WEBRip

iTunes

30
pack

Новость дня

ВАЖНО

!!Акция!!

Alien_RageХит недели

RePack

Horizon Zero Dawn

ИГРА 18+

pack

RePack

jed

!!Акция!!

Alien_Rage

RePack

fifa19

RePack

Assassins Creed: Odyssey

RePack

NEED FOR SPEED™ PAYBACK

4 сезон

9 сезон

Бесстыжие 9 сезон

Все сериалы

все сериалы на PB.wtf

RePack

FAR CRY 5
  

Комбинат «Надежда» (Наталья Мещанинова ) [2013, драма, WEB-DLRip] pb.wtf

Комбинат «Надежда» через торрент pb.wtf

Размер: 1.37 GB | Добавлен: 5 лет 10 мес. назад | Торрент скачан:298 раз
Скачать  

06-11-2014 11:49 Комбинат «Надежда» Скачать торрент  

Комбинат «Надежда»


Год выпуска: 2013
Страна: Россия
Жанр:драма
Продолжительность:01:44:24
Перевод:Не требуется
Субтитры: Английские (вшитые)
Режиссер:Наталья Мещанинова

  • В ролях:

    Дарья Савельева (Света, 17, медсестра), Полина Шанина (Надя, 19, диспетчер службы такси), Максим Стоянов (Шкарупа, 21, дембель), Данил Стеклов (Дрон, 18, студент), Степан Девонин (Алеша, 21, фокусник), Сергей Овчинников (Сережа, 20, рабочий, худрук заводского ВИА), Ксения Радченко (Яна, 20, студентка, невеста худрука), Александра Макарская (Руслана, 19, гитаристка ВИА)

  • Описание:
    Досуг у молодых людей в районе двадцати примерно одинаков, где б они ни жили - в Лондоне, Перу или Заполярье: музыка, мечты, любовь и алкоголь. Света любит жениха, который уехал на юг и теперь живет у нее в скайпе, и ненавидит Надю, из-за которой тот отморозил в сугробе ноги. Надя любит Юрия, Дрон - Свету, Шкарупа - шашлыки и водку, Сережа и Яна - друг друга и свою музыкальную группу, украшение заводской самодеятельности. Таксист Дэн мечтает накопить на внедорожник и возить туристов в тундру, фокусник Алеша - стать звездой корпоративов «Норильского никеля», соперницы Света и Надя - навсегда уехать из родного города.
    Планы с жаром обсуждаются, но никогда не реализуются - в веселом бездействии и безвременье жить легче. Один день рожденья сменяет другой, пикник перетекает в посиделки в бане, денег на билет от малой родины до Большой земли и большой мечты ни у кого не хватает. Неужели они останутся здесь навсегда - или кто-то сделает шаг к будущему, вырвется из заполярного гнезда, пусть и дорогой ценой?
    Пока градообразующее предприятие Норильска обрабатывает драгметаллы, комбинат, функционирующий в душах героев, производит надежду. Непонятно, вхолостую он работает или нет.

  • Мировая премьера:25 января 2014

    Качество: WEB-DLRip
    Формат:AVI
    Видео кодек: XviD
    Аудио кодек:AC3
    Видео: XviD, 720x400 (1.905), 1743 kbps, 24 fps, 0,252 bpp
    Аудио: AC3 / 2.0 / 48 kHz / 128 kbps / 16 bit


    Код:

    General
    Complete name                            : D:\Торенты\Комбинат Надежда.2014.WEB-DL.1400Mb.avi
    Format                                   : AVI
    Format/Info                              : Audio Video Interleave
    Format profile                           : OpenDML
    File size                                : 1.37 GiB
    Duration                                 : 1h 44mn
    Overall bit rate                         : 1 884 Kbps
    Writing application                      : Lavf55.30.100

    Video
    ID                                       : 0
    Format                                   : MPEG-4 Visual
    Format profile                           : Simple@L3
    Format settings, BVOP                    : No
    Format settings, QPel                    : No
    Format settings, GMC                     : No warppoints
    Format settings, Matrix                  : Default (H.263)
    Codec ID                                 : XVID
    Codec ID/Hint                            : XviD
    Duration                                 : 1h 44mn
    Bit rate                                 : 1 744 Kbps
    Width                                    : 720 pixels
    Height                                   : 400 pixels
    Display aspect ratio                     : 1.905
    Frame rate                               : 24.000 fps
    Color space                              : YUV
    Chroma subsampling                       : 4:2:0
    Bit depth                                : 8 bits
    Scan type                                : Progressive
    Compression mode                         : Lossy
    Bits/(Pixel*Frame)                       : 0.252
    Stream size                              : 1.27 GiB (93%)
    Writing library                          : XviD 64

    Audio
    ID                                       : 1
    Format                                   : AC-3
    Format/Info                              : Audio Coding 3
    Mode extension                           : CM (complete main)
    Codec ID                                 : 2000
    Duration                                 : 1h 44mn
    Bit rate mode                            : Constant
    Bit rate                                 : 128 Kbps
    Channel(s)                               : 2 channels
    Channel positions                        : Front: L R
    Sampling rate                            : 48.0 KHz
    Bit depth                                : 16 bits
    Compression mode                         : Lossy
    Stream size                              : 95.6 MiB (7%)
    Alignment                                : Aligned on interleaves
    Interleave, duration                     : 32 ms (0.77 video frame)

    Скриншоты:

    Срочно! Нужна помощь!


    © Оформление by Ravenpb.wtf



  • Скачать Комбинат «Надежда» через торрент http://i6.imageban.ru/out/2014/11/06/0f7cef7d58fa600e537f254b28635366.jpg Скачать фильм Комбинат «Надежда» через торрент бесплантно в хорошем качестве Описание:Досуг у молодых людей в районе двадцати примерно одинаков, где б они ни жили - в Лондоне, Перу или Заполярье: музыка, мечты, ... 9 10 11
    Торрент: Зарегистрирован [2014-11-06 11:49] · скачан: 298 раз
    Статус: √ проверено
    Размер: 1.37 GB
    Как cкачать? Как скачать Комбинат «Надежда» через торрент | qTorrent

    % Раздел Тема Автор DL S | L
    Наши фильмы (HD, WEB-DL 720p, 1080p) [ 4.91 GB ] Комбинат «Надежда» [2013 WEB-DL 1080p] Ворон Скачать
    1 | 0

    28-11-2019 20:33  

    Отключить всю рекламу на сайте

    06-11-2014 14:14 Комбинат «Надежда» Скачать торрент  

    Да ладно, фильм снят в Норильске ? :)) Удивительно )) Я работал на этом "комбинате Надежда"!pb.wtf



    07-11-2014 06:16 Комбинат «Надежда» Скачать торрент  

    Буквы на номере "ВЕК"))) Поймут только Норильчане) Очень много местных вещей. Той философии, которую понимает все население Норильска. Вкус воздуха с Никелевого и Медного завода)pb.wtf



    18-08-2015 03:09 Комбинат «Надежда» Скачать торрент  

    нужно обязательно посмотретьpb.wtf



      Дорогой пользователь! Огромная просьба, поблагодарите релизера, оцените раздачу и оставьте свои комментарий, если Вы скачали Комбинат «Надежда» через торрент бесплатно! Внесите свою лепту в развитие PiratBit!
      Комментировать посты могут только пользователи прошедшие не сложную регистрацию
      Показать сообщения:    

      Комбинат «Надежда» через торрент
      Скачать бесплатно Комбинат «Надежда»
      Комбинат «Надежда» скачать торрент
      Комбинат «Надежда» смотреть онлайн
      Cкачать фильм Комбинат «Надежда» бесплатно
      Комбинат «Надежда» скачать торрент в хорошем качестве
      Комбинат «Надежда» смотреть онлайн бесплатно в хорошем качестве


      Вы не можете начинать темы
      Вы не можете отвечать на сообщения
      Вы не можете редактировать свои сообщения
      Вы не можете удалять свои сообщения
      Вы не можете голосовать в опросах
      Вы не можете прикреплять файлы к сообщениям
      Вы можете скачивать файлы