Аватар: Путь воды

Лицензия

В те дни

1 сезон

скачать смотреть онлайн John Wick Chapter 4

MVO

Крик 6

Дубляж

13 клиническая

3 сезон

Восстание зловещих мертвецов

Дубляж

Одни из нас

Дубляж

Dead Island 2 Gold

Gold

Deluxe RUS

Deluxe RUS

pack

Рекомендуем

ВАЖНО

ВАЖНО

30

Repack

The Lord of the Rings: Gollum

Лицензия

jed

RePack

nioh2

RePack

RDR2

RePack

NEED FOR SPEED™ PAYBACK

RePack

скачать торрент

Кинопоиск HD

Острые козырьки 6 сезон

6 сезон

FAR CRY 6

RePack

скачать торрент

Лицензия

скачать торрент

MVO

1

1 сезон

скачать торрент

1 сезон

скачать торрент

Лицензия

  

Мачо и ботан: Дилогия / 21 Jump Street Dilogy (Фил Лорд, Кристофер Миллер) [2012-2014 г., боевик, комедия, криминал, HDRip by Dean24] (Дубляж, Лицензия)

Мачо и ботан: Дилогия через торрент pb.wtf

Размер: 3.63 GB | Добавлен: 7 лет 9 мес. назад | Торрент скачан:51 раз
| Скачать | Поддержите нас   

29-08-2015 09:20 Мачо и ботан: Дилогия Скачать торрент  

Мачо и ботан / 21 Jump StreetГод выпуска: 2012
Страна: США
Жанр: боевик, комедия, криминал
Продолжительность: 01:49:37
Перевод: Дубляж, Лицензия | BD CEE
Субтитры: Нет

Режиссер: Фил Лорд, Кристофер Миллер
Продюссер: Стефен Дж. Кэннел, Нил Х. Мориц, Джона Хилл
Сценарий: Майкл Бэколл, Патрик Хэсбург, Стефен Дж. Кэннел

Бюджет: $42 000 000
Премьера в мире: 12 марта 2012



В ролях: Джона Хилл, Ченнинг Татум, Бри Ларсон, Дэйв Франко, Роб Риггл, Айс Кьюб, ДеРэй Дэвис, Дакс Флэйм, Крис Парнелл, Элли Кемпер

Описание: Шмидт и Дженко люто ненавидели друг друга в школе. Однако жизнь распорядилась так, чтобы в полицейской академии они стали друзьями. Их никак нельзя было назвать гордостью альма-матер до тех пор, пока судьба не подкинула шанс все изменить — они поступили на службу в департамент секретной службы на Джамп-стрит, которой руководит капитан Диксон. Они меняют пистолеты и удостоверения на ранцы и используют свою моложавую внешность как прикрытие. Беда в том, что современные тинейджеры сильно отличаются от тех, какими их запомнили Шмидт и Дженко. Друзья понимают, что все их знания о сексе, наркотиках и рок-н-ролле в корне неверны. Кроме того, парни понимают, что, несмотря на прошедшие годы, детские комплексы им так и не удалось полностью искоренить. Обоим предстоит вновь заглянуть в глаза собственным страхам и в прямом смысле слова вернуться в шкуры подростков.

Качество: HDRip | BDRip 720p
Формат: AVI
Видео кодек: XviD
Аудио кодек: AC3
Видео: 720x304 (2.37:1), 23.976 fps, XviD build 50 ~1516 kbps avg, 0.29 bit/pixel
Аудио: 48 kHz, AC3 Dolby Digital, 3/2 (L,C,R,l,r) + LFE ch, ~384 kbps



Автор рипа: Dean24
Общее
Полное имя : D:\Мои документы\Фильмы\Сайт\21.Jump.Street.Dilogy.HDRip\21.Jump.Street.HDRip.avi
Формат : AVI
Формат/Информация : Audio Video Interleave
Размер файла : 1,46 Гбайт
Продолжительность : 1 ч. 49 м.
Общий поток : 1910 Кбит/сек
Программа кодирования : VirtualDubMod 1.5.10.3 | (build 2550/release)
Библиотека кодирования : VirtualDubMod build 2550/release

Видео
Идентификатор : 0
Формат : MPEG-4 Visual
Профиль формата : Advanced [email protected]
Параметр BVOP формата : 3
Параметр QPel формата : Нет
Параметр GMC формата : Без точки перехода
Параметр матрицы формата : Default (H.263)
Идентификатор кодека : XVID
Идентификатор кодека/Подсказка : XviD
Продолжительность : 1 ч. 49 м.
Битрейт : 1517 Кбит/сек
Ширина : 720 пикселей
Высота : 304 пикселя
Соотношение сторон : 2,35:1
Частота кадров : 23,976 кадра/сек
Цветовое пространство : YUV
Субдискретизация насыщенности : 4:2:0
Битовая глубина : 8 бит
Тип развёртки : Прогрессивная
Метод сжатия : С потерями
Бит/(Пиксели*Кадры) : 0.289
Размер потока : 1,16 Гбайт (79%)
Библиотека кодирования : XviD 1.2.1 (UTC 2008-12-04)

Аудио
Идентификатор : 1
Формат : AC-3
Формат/Информация : Audio Coding 3
Расширение режима : CM (complete main)
Параметр Endianness формата : Big
Идентификатор кодека : 2000
Продолжительность : 1 ч. 49 м.
Вид битрейта : Постоянный
Битрейт : 384 Кбит/сек
Каналы : 6 каналов
Расположение каналов : Front: L C R, Side: L R, LFE
Частота : 48,0 КГц
Битовая глубина : 16 бит
Метод сжатия : С потерями
Размер потока : 301 Мбайт (20%)
Выравнивание : Разделение по промежуткам
Продолжительность промежутка : 42 мс. (1,00 видеокадр)
Время предзагрузки промежутка : 500 мс.


Мачо и ботан 2 / 22 Jump StreetГод выпуска: 2014
Страна: США
Жанр: комедия, боевик, криминал
Продолжительность: 01:51:56
Перевод: Дубляж | Лицензия
Субтитры: Нет

Режиссер: Фил Лорд, Кристофер Миллер
Продюссер: Джона Хилл, Нил Х. Мориц, Ченнинг Татум
Сценарий: Майкл Бэколл, Орен Узил, Родни Ротман

Бюджет: $50 000 000
Премьера в мире: 5 июня 2014



В ролях: Джона Хилл, Ченнинг Татум, Петер Стормаре, Уайатт Расселл, Эмбер Стивенс, Джиллиан Белл, Айс Кьюб, братья Лукас, Ник Офферман, Джимми Татро

Описание: Офицерам Шмидту и Дженко теперь предстоит работать под прикрытием в местном колледже. Однако когда Дженко встречает родственную душу в футбольной команде, а Шмидт проникает в богемную среду, они начинают сомневаться в их товариществе…

Качество: HDRip | BDRip 1080p
Формат: AVI
Видео кодек: XviD
Аудио кодек: AC3
Видео: 720x304 (2.37:1), 23.976 fps, XviD build 50 ~2384 kbps avg, 0.45 bit/pixel
Аудио: 48 kHz, AC3 Dolby Digital, 3/2 (L,C,R,l,r) + LFE ch, ~384 kbps



Автор рипа: Dean24
Общее
Полное имя : D:\Мои документы\Фильмы\Сайт\21.Jump.Street.Dilogy.HDRip\22.Jump.Street.HDRip.avi
Формат : AVI
Формат/Информация : Audio Video Interleave
Профиль формата : OpenDML
Размер файла : 2,17 Гбайт
Продолжительность : 1 ч. 51 м.
Общий поток : 2775 Кбит/сек
Программа кодирования : VirtualDubMod 1.5.10.3 | (build 2550/release)
Библиотека кодирования : VirtualDubMod build 2550/release

Видео
Идентификатор : 0
Формат : MPEG-4 Visual
Профиль формата : Advanced [email protected]
Параметр BVOP формата : 3
Параметр QPel формата : Нет
Параметр GMC формата : Без точки перехода
Параметр матрицы формата : Default (H.263)
Идентификатор кодека : XVID
Идентификатор кодека/Подсказка : XviD
Продолжительность : 1 ч. 51 м.
Битрейт : 2379 Кбит/сек
Ширина : 720 пикселей
Высота : 304 пикселя
Соотношение сторон : 2,35:1
Частота кадров : 23,976 кадра/сек
Цветовое пространство : YUV
Субдискретизация насыщенности : 4:2:0
Битовая глубина : 8 бит
Тип развёртки : Прогрессивная
Метод сжатия : С потерями
Бит/(Пиксели*Кадры) : 0.453
Размер потока : 1,86 Гбайт (86%)
Библиотека кодирования : XviD 1.2.1 (UTC 2008-12-04)

Аудио
Идентификатор : 1
Формат : AC-3
Формат/Информация : Audio Coding 3
Расширение режима : CM (complete main)
Параметр Endianness формата : Big
Идентификатор кодека : 2000
Продолжительность : 1 ч. 51 м.
Вид битрейта : Постоянный
Битрейт : 384 Кбит/сек
Каналы : 6 каналов
Расположение каналов : Front: L C R, Side: L R, LFE
Частота : 48,0 КГц
Битовая глубина : 16 бит
Метод сжатия : С потерями
Размер потока : 307 Мбайт (14%)
Выравнивание : Разделение по промежуткам
Продолжительность промежутка : 42 мс. (1,00 видеокадр)
Время предзагрузки промежутка : 500 мс.





Скачать Мачо и ботан: Дилогия через торрент http://i67.fastpic.ru/big/2015/0829/3d/79e6f02ed5269c7e678a17997d85753d.png Скачать, смотреть онлайн Мачо и ботан: Дилогия бесплатно в хорошем качестве Описание: Шмидт и Дженко люто ненавидели друг друга в школе. Однако жизнь распорядилась так, чтобы в полицейской академии они стали ... 9.7 10 12
Info! Золотая раздача, скачанное не засчитывается.
Торрент: Зарегистрирован [2015-08-29 09:20] · скачан: 51 раз
Статус: √ проверено
Размер: 3.63 GB
Как cкачать? Как скачать Мачо и ботан: Дилогия через торрент | UTorrent

28-11-2019 20:33  


Отключить вcю реклaмy на сайте, в т.ч. и в плеере онлайн просмотра!

    Дорогой пользователь! Огромная просьба, поблагодарите релизера, оцените раздачу и оставьте свои комментарий, если Вы скачали Мачо и ботан: Дилогия через торрент бесплатно!!
    Комментировать посты могут только пользователи прошедшие не сложную регистрацию
    Показать сообщения:    


    Мачо и ботан: Дилогия через торрент
    Скачать бесплатно Мачо и ботан: Дилогия
    Мачо и ботан: Дилогия скачать торрент
    Мачо и ботан: Дилогия смотреть онлайн
    Cкачать фильм Мачо и ботан: Дилогия бесплатно
    Мачо и ботан: Дилогия скачать торрент в хорошем качестве
    Мачо и ботан: Дилогия смотреть онлайн бесплатно в хорошем качестве
    Вы не можете начинать темы
    Вы не можете отвечать на сообщения
    Вы не можете редактировать свои сообщения
    Вы не можете удалять свои сообщения
    Вы не можете голосовать в опросах
    Вы не можете прикреплять файлы к сообщениям
    Вы можете скачивать файлы