Ссылка на приватное зеркало нашего сайта всего за 1$. Внимание количество ограничено!!!

2 сезон

iTunes

1 сезон

1

2 сезон

2 сезон

iTunes

1 сезон

RePack

30

Ultimate

ВАЖНО

ИГРА 18+

pack

RePack

MK11
pack

Забери бонус

RePack

jed

!!Акция!!

Alien_Rage

RePack

fifa19

RePack

Assassins Creed: Odyssey

RePack

NEED FOR SPEED™ PAYBACK

4 сезон

9 сезон

Бесстыжие 9 сезон

Все сериалы

все сериалы на PB.wtf

RePack

FAR CRY 5
  

Шутер от первого лица / FPS: First Person Shooter (Андреас Том, Achim Lützelschwab) [2014, ужасы, HDRip, Любительский (одноголосый) [Xixidok] pb.wtf

Шутер от первого лица через торрент pb.wtf

Размер: 1.41 GB | Добавлен: 5 лет 2 мес. назад | Торрент скачан:118 раз
Скачать  

03-09-2015 15:59 Шутер от первого лица Скачать торрент  


Шутер от первого лица / FPS: First Person Shooter


ИНФОРМАЦИЯ:
Год выпуска:2014
Страна: Германия
Жанр: ужасы
Продолжительность: 01:19:06
Перевод: Любительский (одноголосый) [Xixidok]
Режиссер: Андреас Том, Achim Lützelschwab

В Ролях:

Себастьян Кетнер (Wheelchair Zombie), Atlanta Luetzelschwab (Nurse Zombie), Achim Lützelschwab (Cook Zombie), Саша Штрак (Special Unit), Стефан Уейте (Gamer, озвучка), Тобиаш Уинклер (Clown Zombie)

Описание:
Ваша беременная жена Линда была захвачена беспощадным ученым, который создал смертельный вирус. Чтобы спасти ее, вы должны пробраться через старую экспериментальную клинику, вооруженную до зубов. К сожалению, у вас не так много времени, на рассвете, все место будет уничтожено...


ТЕХ.ДАННЫЕ:
Качество: HDRip
Формат: AVI
Видео кодек: XviD
Аудио кодек: MP3
Видео: XviD, 720x404 (16:9), 2257 kbps, 24 fps, 0,323 bpp
Аудио: MP3 / 2.0 / 44 kHz / 192 kbps /



General
Complete name : D:\Торенты\First.Person.Shooter.2014.Xixidok.avi
Format : AVI
Format/Info : Audio Video Interleave
File size : 1.41 GiB
Duration : 1h 19mn
Overall bit rate : 2 560 Kbps
Writing application : VirtualDubMod 1.5.10.3 (build 2550/release)
Writing library : VirtualDubMod build 2550/release

Video
ID : 0
Format : MPEG-4 Visual
Format profile : Advanced Simple@L5
Format settings, BVOP : 1
Format settings, QPel : No
Format settings, GMC : No warppoints
Format settings, Matrix : Default (H.263)
Codec ID : XVID
Codec ID/Hint : XviD
Duration : 1h 19mn
Bit rate : 2 258 Kbps
Width : 720 pixels
Height : 404 pixels
Display aspect ratio : 16:9
Frame rate : 24.000 fps
Color space : YUV
Chroma subsampling : 4:2:0
Bit depth : 8 bits
Scan type : Progressive
Compression mode : Lossy
Bits/(Pixel*Frame) : 0.323
Stream size : 1.25 GiB (88%)
Writing library : XviD 64

Audio
ID : 1
Format : MPEG Audio
Format version : Version 1
Format profile : Layer 3
Codec ID : 55
Codec ID/Hint : MP3
Duration : 1h 19mn
Bit rate mode : Constant
Bit rate : 192 Kbps
Channel(s) : 2 channels
Sampling rate : 44.1 KHz
Compression mode : Lossy
Stream size : 109 MiB (7%)
Alignment : Split accross interleaves
Скриншоты:


© Оформление by Ворон
pb.wtf



Скачать Шутер от первого лица через торрент http://pic.kartinco.top/images/6/ordi9.jpg Скачать фильм Шутер от первого лица через торрент бесплантно в хорошем качестве Описание: Ваша беременная жена Линда была захвачена беспощадным ученым, который создал смертельный вирус. Чтобы спасти ее, вы должны ... 9 10 11
Торрент: Зарегистрирован [2015-09-03 15:59] · скачан: 118 раз
Статус: T временная
Размер: 1.41 GB
Как cкачать? Как скачать Шутер от первого лица через торрент | qTorrent

% Раздел Тема Автор DL S | L
T Фильмы (Blu-ray, BD-Remux, HDDVD) [ 19.6 GB ] Шутер от первого лица / FPS: First Person Shooter [2014 BDRemux 1080p от NovaLan] VO Ворон Скачать
1 | 0

28-11-2019 20:33  

Отключить всю рекламу на сайте

03-09-2015 16:18 Шутер от первого лица Скачать торрент  

Ворон, ты сделал мой день :rofle: :rofle: :rofle: :rofle: спасибо yespb.wtf



03-09-2015 16:28 Шутер от первого лица Скачать торрент  

ересь полнейшаяpb.wtf



03-09-2015 16:32 Шутер от первого лица Скачать торрент  

Гр8банные наркоманы.pb.wtf



05-09-2015 08:14 Шутер от первого лица Скачать торрент  

:cansored: :cansored:pb.wtf



    Дорогой пользователь! Огромная просьба, поблагодарите релизера, оцените раздачу и оставьте свои комментарий, если Вы скачали Шутер от первого лица через торрент бесплатно! Внесите свою лепту в развитие PiratBit!
    Комментировать посты могут только пользователи прошедшие не сложную регистрацию
    Показать сообщения:    

    Шутер от первого лица через торрент
    Скачать бесплатно Шутер от первого лица
    Шутер от первого лица скачать торрент
    Шутер от первого лица смотреть онлайн
    Cкачать фильм Шутер от первого лица бесплатно
    Шутер от первого лица скачать торрент в хорошем качестве
    Шутер от первого лица смотреть онлайн бесплатно в хорошем качестве


    Вы не можете начинать темы
    Вы не можете отвечать на сообщения
    Вы не можете редактировать свои сообщения
    Вы не можете удалять свои сообщения
    Вы не можете голосовать в опросах
    Вы не можете прикреплять файлы к сообщениям
    Вы можете скачивать файлы