Ссылка на приватное зеркало нашего сайта всего за 1$. Внимание количество ограничено!!!

2 сезон

iTunes

1 сезон

1

2 сезон

2 сезон

iTunes

1 сезон

RePack

30

Ultimate

ВАЖНО

ИГРА 18+

pack

RePack

MK11
pack

Забери бонус

RePack

jed

!!Акция!!

Alien_Rage

RePack

fifa19

RePack

Assassins Creed: Odyssey

RePack

NEED FOR SPEED™ PAYBACK

4 сезон

9 сезон

Бесстыжие 9 сезон

Все сериалы

все сериалы на PB.wtf

RePack

FAR CRY 5
  

Ты, живущий! / Du levande (Рой Андерссон) [2007, драма, комедия, музыка, BDRip 720p by msltel] MVO, AVO pb.wtf

Ты, живущий! через торрент pb.wtf

Размер: 3.67 GB | Добавлен: 5 лет 2 мес. назад | Торрент скачан:33 раза
Скачать  

12-09-2015 10:00 Ты, живущий! Скачать торрент  

Название: Ты, живущий!
Оригинальное название: Du levande
Год выпуска: 2007
Страна: Швеция, Германия, Франция, Дания, Норвегия, Япония
Жанр: драма, комедия, музыка
Продолжительность: 01:33:36
Перевод: профессиональный многоголосый, авторский

Режиссёр: Рой Андерссон

В ролях: Джессика Лундберг, Элизабет Хеландер, Бйорн Инглунд, Лейф Ларссон, Олле Олсон, Бригитта Перссон, Кемаль Шенер, Хакан Ангсер, Рольф Энгстрем, Гуннар Иварссон, Эрик Бекман, Патрик Андерс Эдгрен, Леннарт Эрикссон, Пер Фредрикссон, Джессика Нилссон

Описание: Второй фильм трилогии режиссёра «Песен со второго этажа» — про шведскую модель конца света. Фильм о человеке, о его величии и его нищете, его радости и печали, его уверенности в себе и страхе. О человеке, над которым нам хочется смеяться и одновременно плакать. Это просто трагическая комедия или комическая трагедия о нас...



Качество: BDRip 720p
Формат: MKV
Видео кодек: H.264
Аудио кодек: AC3
Видео: MPEG-4 AVC, 4700 Kбит/с, 1214x720, 24 кадра/с
Аудио 1: русский, AC3, 160 kbps, 2 ch, 48 kHz [профессиональный многоголосый]
Аудио 2: русский, AC3, 192 kbps, 2 ch, 48 kHz [авторский, Антон Алексеев]
Аудио 3: шведский, AC3, 448 kbps, 6 ch, 48 kHz [оригинал]
Субтитры 1: русские
Субтитры 2: английские
Европейская киноакадемия, 2007 год
Номинации (1):
Лучший режиссер (Рой Андерссон)
Общее
Уникальный идентификатор : 236368006990573001084758081303556872879 (0xB1D2D27F5BA080A99AA28FAEB1CF5AAF)
Полное имя : D:VideoТы, живущий.2007.BDRip.720p.mkv
Формат : Matroska
Версия формата : Version 4 / Version 2
Размер файла : 3,67 Гбайт
Продолжительность : 1 ч. 33 м.
Общий поток : 5612 Кбит/сек
Название фильма : BDRip -- STarankov
Дата кодирования : UTC 2015-09-11 12:51:38
Программа кодирования : mkvmerge v8.2.0 ('World of Adventure') 64bit
Библиотека кодирования : libebml v1.3.1 + libmatroska v1.4.2
DURATION : 01:25:29.747000000
NUMBER_OF_FRAMES : 621
NUMBER_OF_BYTES : 19873
_STATISTICS_WRITING_APP : mkvmerge v8.2.0 ('World of Adventure') 64bit
_STATISTICS_WRITING_DATE_UTC : 2015-09-11 12:51:38
_STATISTICS_TAGS : BPS DURATION NUMBER_OF_FRAMES NUMBER_OF_BYTES

Видео
Идентификатор : 1
Формат : AVC
Формат/Информация : Advanced Video Codec
Профиль формата : High@L4.1
Параметр CABAC формата : Да
Параметр ReFrames формата : 9 кадров
Идентификатор кодека : V_MPEG4/ISO/AVC
Продолжительность : 1 ч. 33 м.
Битрейт : 4700 Кбит/сек
Ширина : 1214 пикселей
Высота : 720 пикселей
Соотношение сторон : 5:3
Режим частоты кадров : Постоянный
Частота кадров : 24,000 кадра/сек
Цветовое пространство : YUV
Субдискретизация насыщенности : 4:2:0
Битовая глубина : 8 бит
Тип развёртки : Прогрессивная
Бит/(Пиксели*Кадры) : 0.224
Размер потока : 3,07 Гбайт (84%)
Библиотека кодирования : x264 core 146 r2538 121396c
Настройки программы : cabac=1 / ref=9 / deblock=1:-3:-3 / analyse=0x3:0x113 / me=umh / subme=10 / psy=1 / psy_rd=1.00:0.15 / mixed_ref=1 / me_range=32 / chroma_me=1 / trellis=2 / 8x8dct=1 / cqm=0 / deadzone=21,11 / fast_pskip=1 / chroma_qp_offset=-3 / threads=6 / lookahead_threads=1 / sliced_threads=0 / nr=0 / decimate=1 / interlaced=0 / bluray_compat=0 / constrained_intra=0 / bframes=8 / b_pyramid=2 / b_adapt=2 / b_bias=0 / direct=1 / weightb=1 / open_gop=0 / weightp=2 / keyint=230 / keyint_min=23 / scenecut=40 / intra_refresh=0 / rc_lookahead=40 / rc=crf / mbtree=0 / crf=21.2 / qcomp=0.60 / qpmin=0 / qpmax=69 / qpstep=4 / vbv_maxrate=40000 / vbv_bufsize=50000 / crf_max=0.0 / nal_hrd=none / filler=0 / ip_ratio=1.40 / pb_ratio=1.30 / aq=1:1.00
Язык : Swedish
Default : Да
Forced : Нет
DURATION : 01:33:35.959000000
NUMBER_OF_FRAMES : 134783
NUMBER_OF_BYTES : 3376634995
_STATISTICS_WRITING_APP : mkvmerge v8.2.0 ('World of Adventure') 64bit
_STATISTICS_WRITING_DATE_UTC : 2015-09-11 12:51:38
_STATISTICS_TAGS : BPS DURATION NUMBER_OF_FRAMES NUMBER_OF_BYTES

Аудио #1
Идентификатор : 2
Формат : AC-3
Формат/Информация : Audio Coding 3
Расширение режима : CM (complete main)
Параметр Endianness формата : Big
Идентификатор кодека : A_AC3
Продолжительность : 1 ч. 33 м.
Вид битрейта : Постоянный
Битрейт : 160 Кбит/сек
Каналы : 2 канала
Расположение каналов : Front: L R
Частота : 48,0 КГц
Метод сжатия : С потерями
Размер потока : 107 Мбайт (3%)
Заголовок : MVO
Язык : Russian
Default : Да
Forced : Нет

Аудио #2
Идентификатор : 3
Формат : AC-3
Формат/Информация : Audio Coding 3
Расширение режима : CM (complete main)
Параметр Endianness формата : Big
Идентификатор кодека : A_AC3
Продолжительность : 1 ч. 33 м.
Вид битрейта : Постоянный
Битрейт : 192 Кбит/сек
Каналы : 2 канала
Расположение каналов : Front: L R
Частота : 48,0 КГц
Метод сжатия : С потерями
Размер потока : 129 Мбайт (3%)
Заголовок : AVO (Антон Алексеев)
Язык : Russian
Default : Нет
Forced : Нет

Аудио #3
Идентификатор : 4
Формат : AC-3
Формат/Информация : Audio Coding 3
Расширение режима : CM (complete main)
Параметр Endianness формата : Big
Идентификатор кодека : A_AC3
Продолжительность : 1 ч. 33 м.
Вид битрейта : Постоянный
Битрейт : 448 Кбит/сек
Каналы : 6 каналов
Расположение каналов : Front: L C R, Side: L R, LFE
Частота : 48,0 КГц
Метод сжатия : С потерями
Размер потока : 300 Мбайт (8%)
Заголовок : Original
Язык : Swedish
Default : Нет
Forced : Нет

Текст #1
Идентификатор : 5
Формат : UTF-8
Идентификатор кодека : S_TEXT/UTF8
Идентификатор кодека/Информация : UTF-8 Plain Text
Заголовок : русский
Язык : Russian
Default : Нет
Forced : Нет

Текст #2
Идентификатор : 6
Формат : UTF-8
Идентификатор кодека : S_TEXT/UTF8
Идентификатор кодека/Информация : UTF-8 Plain Text
Заголовок : английский
Default : Да
Forced : Нет
pb.wtf



Скачать Ты, живущий! через торрент http://i71.fastpic.ru/big/2015/0911/e5/425e5ebcffb802609bef355df3be47e5.jpg Скачать фильм Ты, живущий! через торрент бесплантно в хорошем качестве Описание: Второй фильм трилогии режиссёра «Песен со второго этажа» — про шведскую модель конца света. Фильм о человеке, о его величии и его ... 10 10 1
Торрент: Зарегистрирован [2015-09-12 10:00] · скачан: 33 раз
Статус: √ проверено
Размер: 3.67 GB
Как cкачать? Как скачать Ты, живущий! через торрент | qTorrent

% Раздел Тема Автор DL S | L
Фильмы [HD 720p, 1080p] (Хороший звук DUB, MVO) [ 8.83 GB ] Ты живущий! / Du levande [2007 музыка BDRip 1080p by msltel] MVO AVO msltel Скачать
1 | 0
Фильмы 2006-2008 [ 2.25 GB ] Ты живущий! / Du levande [2007 музыка BDRip AVC by msltel] MVO AVO msltel Скачать
1 | 0

28-11-2019 20:33  

Отключить всю рекламу на сайте

    Дорогой пользователь! Огромная просьба, поблагодарите релизера, оцените раздачу и оставьте свои комментарий, если Вы скачали Ты, живущий! через торрент бесплатно! Внесите свою лепту в развитие PiratBit!
    Комментировать посты могут только пользователи прошедшие не сложную регистрацию
    Показать сообщения:    

    Ты, живущий! через торрент
    Скачать бесплатно Ты, живущий!
    Ты, живущий! скачать торрент
    Ты, живущий! смотреть онлайн
    Cкачать фильм Ты, живущий! бесплатно
    Ты, живущий! скачать торрент в хорошем качестве
    Ты, живущий! смотреть онлайн бесплатно в хорошем качестве


    Вы не можете начинать темы
    Вы не можете отвечать на сообщения
    Вы не можете редактировать свои сообщения
    Вы не можете удалять свои сообщения
    Вы не можете голосовать в опросах
    Вы не можете прикреплять файлы к сообщениям
    Вы можете скачивать файлы