Всегда рабочее зеркало без VPN и Proxy просто перед .vidak.icu напиши любое слово или цифру, Пример http://amto.vidak.icu

Лицензия

MVO

1 сезон

1

1 сезон

iTunes

1 сезон

13

1 сезон

Deluxe

pack

Рекомендуем

Repack

30

ВАЖНО

RePack

MK11

RePack

jed

RePack

fifa19

RePack

RDR2

RePack

NEED FOR SPEED™ PAYBACK

Кинопоиск HD

6 сезон

 Острые козырьки 6 сезон

Все сериалы

все сериалы на PB.wtf

RePack

FAR CRY 5
  
Magnet ссылка

Психопаспорт Фильм / Psycho-pass Movie (Сиотани Наоёси) [2015 г., фантастика, боевик, BDRip 720p, Любительский многоголосый] pb.wtf

Психопаспорт Фильм через торрент pb.wtf

Размер: 2.17 GB | Добавлен: 6 лет 11 мес. назад | Торрент скачан:220 раз
Смотреть онлайн Психопаспорт Фильм | Скачать    Ребята, помогите собрать деньги на оплату серверов!!!

11-09-2015 10:44 Психопаспорт Фильм Скачать торрент  

Психопаспорт Фильм / Psycho-pass Movie
Год выпуска: 2015
Страна: Япония
Жанр: аниме, фантастика, боевик
Продолжительность: 115 мин. / 01:55
Перевод: Любительский, многоголосый (многоголосый, закадровый - озвучивание Shina, Ancord, JAM, Nika Lenina, Torgil, Esther, Oriko, Demetra, Trina_D, 9й Неизвестный, BalFor, Cuba77/ перевод GMC)

Режиссер: Сиотани Наоёси
Продюссер: Akitoshi Mori, Фуми Морихиро, Masaya Saitou
Сценарий: Макото Фуками, Гэн Уробути

Премьера в мире: 09.01.2015



В ролях: Кана Ханадзава, Норико Хидака, Унсё Исидзука, Шизука Ито, Кэндзи Нодзима, Аянэ Сакура, Сакурай Такахиро, Томокадзу Секи, Хироки Тоти, Кадзухиро Ямадзи

Описание: 2116 год. Японское правительство начинает экспортировать автономных роботов-дронов с системой Сивиллы в «проблемные» страны, и Сивилла распространяется по всему миру. В качестве эксперимента решается запустить Сивиллу в СЮВАС (Союз Юго-Восточных Азиатских Стран) — государство, истерзанное гражданской войной. Опыт оказался удачным, и благодаря новой системе прибрежный город Шамбала начинает благоденствовать в обстановке временного перемирия и безопасности. Однако затем СЮВАС посылает в Японию своих агентов с целью совершить теракт. Те успешно проникают сквозь охрану Сивиллы и наносят удар изнутри. Подозрение падает на конкретного человека. Ответственная за проведение расследования, офицер Цунэмори, отправляется в Шамбалу.

Качество: BDRip 720p
Формат: MP4
Видео кодек: AVC
Аудио кодек: AC3
Видео: 1280x720 (16:9), 23,976 кадра/сек, 0.103 bit/pixel, avc1,
Аудио#1: RU, 48 kHz, AC-3, 448 Кбит/сек / Любительский
Релиз от: AniDub.com
скриншот  скриншот  скриншот  

Формат : MPEG-4
Профиль формата : Base Media
Идентификатор кодека : isom
Размер файла : 2,17 Гбайт
Продолжительность : 1 ч. 53 м.
Общий поток : 2728 Кбит/сек
Дата кодирования : UTC 2015-09-09 22:27:42
Дата пометки : UTC 2015-09-09 22:27:42
Программа кодирования : Yamb 2.1.0.0 [http://yamb.unite-video.com]

Видео
Идентификатор : 1
Формат : AVC
Формат/Информация : Advanced Video Codec
Профиль формата : [email protected]
Параметр CABAC формата : Да
Параметр ReFrames формата : 4 кадра
Идентификатор кодека : avc1
Идентификатор кодека/Информация : Advanced Video Coding
Продолжительность : 1 ч. 53 м.
Битрейт : 2278 Кбит/сек
Максимальный битрейт : 18,3 Мбит/сек
Ширина : 1280 пикселей
Высота : 720 пикселей
Соотношение сторон : 16:9
Режим частоты кадров : Постоянный
Частота кадров : 23,976 кадра/сек
Цветовое пространство : YUV
Субдискретизация насыщенности : 4:2:0
Битовая глубина : 8 бит
Тип развёртки : Прогрессивная
Бит/(Пиксели*Кадры) : 0.103
Размер потока : 1,81 Гбайт (83%)
Библиотека кодирования : x264 core 146 r2538 121396c
Настройки программы : cabac=1 / ref=3 / deblock=1:0:0 / analyse=0x1:0x131 / me=umh / subme=9 / psy=1 / psy_rd=1.00:0.00 / mixed_ref=1 / me_range=32 / chroma_me=1 / trellis=1 / 8x8dct=0 / cqm=0 / deadzone=21,11 / fast_pskip=1 / chroma_qp_offset=-2 / threads=12 / lookahead_threads=1 / sliced_threads=0 / nr=0 / decimate=1 / interlaced=0 / bluray_compat=0 / constrained_intra=0 / bframes=3 / b_pyramid=2 / b_adapt=1 / b_bias=0 / direct=1 / weightb=1 / open_gop=0 / weightp=2 / keyint=240 / keyint_min=1 / scenecut=40 / intra_refresh=0 / rc_lookahead=40 / rc=crf / mbtree=1 / crf=18.0 / qcomp=0.60 / qpmin=0 / qpmax=69 / qpstep=4 / ip_ratio=1.40 / aq=1:1.50
Дата кодирования : UTC 2015-07-16 12:04:30
Дата пометки : UTC 2015-09-09 22:30:18

Аудио
Идентификатор : 2
Формат : AC-3
Формат/Информация : Audio Coding 3
Расширение режима : CM (complete main)
Параметр Endianness формата : Big
Идентификатор кодека : ac-3
Продолжительность : 1 ч. 53 м.
Вид битрейта : Постоянный
Битрейт : 448 Кбит/сек
Каналы : 6 каналов
Расположение каналов : Front: L C R, Side: L R, LFE
Частота : 48,0 КГц
Битовая глубина : 16 бит
Метод сжатия : С потерями
Размер потока : 364 Мбайт (16%)
Дата кодирования : UTC 2015-09-09 22:29:30
Дата пометки : UTC 2015-09-09 22:30:18

pb.wtf



Скачать Психопаспорт Фильм через торрент https://pic1.kartinco.top/images/10/mzzzl.jpg Скачать, смотреть онлайн Психопаспорт Фильм бесплантно в хорошем качестве Описание: 2116 год. Японское правительство начинает экспортировать автономных роботов-дронов с системой Сивиллы в «проблемные» страны, и ... 10 10 10
Info! Золотая раздача, скачанное не засчитывается.
Торрент: Зарегистрирован [2015-09-11 10:44] · скачан: 220 раз
Статус: √ проверено
Размер: 2.17 GB
Как cкачать? Как скачать Психопаспорт Фильм через торрент | UTorrent

28-11-2019 20:33  

Отключить вcю реклaмy на сайте

11-09-2015 11:25 Психопаспорт Фильм Скачать торрент  

Просмотрел раздел аниме, и у меня появился такой вопрос ко всем любителям аниме индустрии, нужно ли возрождение раздела "Аниме", выкладывание новинок, сериалов, онгоингов, или же тут не востребовано и вы качаете/смотрите на других сайтах(релизерах).?pb.wtf



11-09-2015 12:06 Психопаспорт Фильм Скачать торрент  

Ku6opr писал(а):

Просмотрел раздел аниме, и у меня появился такой вопрос ко всем любителям аниме индустрии, нужно ли возрождение раздела "Аниме", выкладывание новинок, сериалов, онгоингов, или же тут не востребовано и вы качаете/смотрите на других сайтах(релизерах).?

я не особый фанат, но качественные полнометражки с удовольствием гляжу. по поводу раздела - ориентируйся по количеству скачавших наверное. эту раздачу заберу, спасибо!pb.wtf



11-09-2015 13:45 Психопаспорт Фильм Скачать торрент  

у анидаба трекер есть, я оттуда качаю, если не смотрю онлайн. а в другой озвучке рад бы был видеть интересные релизы.pb.wtf



11-09-2015 16:35 Психопаспорт Фильм Скачать торрент  

funnyfuck992 писал(а):

у анидаба трекер есть, я оттуда качаю, если не смотрю онлайн. а в другой озвучке рад бы был видеть интересные релизы.

Ну я как раз к этому и клоню, что стоит ли тут выкладывать, если есть другой ресурс который и озвучивает и раздает)))pb.wtf



11-09-2015 17:52 Психопаспорт Фильм Скачать торрент  

Ku6opr писал(а):

funnyfuck992 писал(а):

у анидаба трекер есть, я оттуда качаю, если не смотрю онлайн. а в другой озвучке рад бы был видеть интересные релизы.

Ну я как раз к этому и клоню, что стоит ли тут выкладывать, если есть другой ресурс который и озвучивает и раздает)))

вот я и говорю, что лично я буду рад релизам других даберов, анидаб как никак не все звучит))pb.wtf



12-09-2015 02:43 Психопаспорт Фильм Скачать торрент  

Ku6opr, короче, я тут ни слова не понял) т.к не силен в анимэ вовсе! ну а на счет выкладывать или нет, то конечно выкладывайте, создавайте раздачи, желающие скачать найдутся!)pb.wtf



15-09-2015 12:31 Психопаспорт Фильм Скачать торрент  

Возрождайте аниме раздел однозначно!Здесь удобно скачивать!pb.wtf



    Дорогой пользователь! Огромная просьба, поблагодарите релизера, оцените раздачу и оставьте свои комментарий, если Вы скачали Психопаспорт Фильм через торрент бесплатно!
    Комментировать посты могут только пользователи прошедшие не сложную регистрацию
    Показать сообщения:    

    Психопаспорт Фильм через торрент
    Скачать бесплатно Психопаспорт Фильм
    Психопаспорт Фильм скачать торрент
    Психопаспорт Фильм смотреть онлайн
    Cкачать фильм Психопаспорт Фильм бесплатно
    Психопаспорт Фильм скачать торрент в хорошем качестве
    Психопаспорт Фильм смотреть онлайн бесплатно в хорошем качестве


    Вы не можете начинать темы
    Вы не можете отвечать на сообщения
    Вы не можете редактировать свои сообщения
    Вы не можете удалять свои сообщения
    Вы не можете голосовать в опросах
    Вы не можете прикреплять файлы к сообщениям
    Вы можете скачивать файлы