Ссылка на приватное зеркало всего за 1$. Внимание количество ограничено!!!

OK

1+1

iTunes

мы

OK

1

WEB-DLRip

Джокер

Пифагор

Ведьмак / The Witcher сериал

Лицензия

ПШазам

ОК

Оно 2

iTunes

30
pack

Вам бонус

ВАЖНО

!!Акция!!

Alien_RageХит недели

RePack

Resident Evil 21

ИГРА 18+

pack

RePack

jed

!!Акция!!

Alien_Rage

RePack

fifa19

RePack

Assassins Creed: Odyssey

RePack

NEED FOR SPEED™ PAYBACK

4 сезон

9 сезон

Бесстыжие 9 сезон

Все сериалы

все сериалы на PB.wtf

RePack

FAR CRY 5
  

12 стульев (полная реставрация Крупный план) (Леонид Гайдай) [1971 г., Комедия, DVD9, лицензия] pb.wtf

Скачать  

25-07-2013 16:28 12 стульев Скачать торрент  

12 стульев(полная реставрация Крупный план)
Год выпуска: 1971
Страна: СССР
Жанр: Комедия,
Продолжительность: 161 мин.
Тип релиза: Лицензия
Мировая премьера :21 июня 1971
Релиз на DVD :18 февраля 2010, «Lizard Cinema Trade»
Субтитры: русские

Режиссер: Леонид Гайдай
Сценарий: Комедия по одноименному роману И. Ильфа и Е. Петрова.



В ролях: Арчил Гомиашвили, Сергей Филиппов, Михаил Пуговкин, Гликерия Богданова-Чеснокова, Наталья Варлей, Наталья Воробьева, Нина Гребешкова, Наталья Крачковская, Клара Румянова, Георгий Вицин, Николай Горлов, Юрий Никулин, Виктор Павлов, Готлиб Ронинсон, Роман Филиппов, Григорий Шпигель, Владимир Этуш, Игорь Ясулович, Нина Агапова, Рина Зеленая, Ирина Мурзаева, Евдокия Урусова, Руслан Ахметов, Эдуард Бредун, Павел Винник, Эраст Гарин, Ш. Геджадзе, Георгий Георгиу, Алик Денисов, В. Дорофеев, Иван Жеваго, Виктор Колпаков, Юрий Медведев, Раднэр Муратов, Н. Пажитнов, В. Ферапонтов, Александр Хвыля, Савелий Крамаров, Ростислав Плятт, Леонид Гайдай,

Описание: Во время революции и последовавшего за ней краткого периода военного коммунизма многие прятали свои ценности как можно надежнее. И вот Ипполит Матвеевич Воробьянинов, бывший Старгородский предводитель дворянства и светский лев, а ныне - скромный делопроизводитель ЗАГСа, узнает от умирающей тещи, что некогда она спрятала свои бриллианты и жемчуга в общей сложности на 150 000 золотых рублей под обивку одного из двенадцати стульев гостиного гарнитура работы известного мастера Гамбса.

Качество: DVD9
Формат: DVD Video
Аудио кодек: AC3
Видео: PAL 4:3 (720x576) MPEG Video~3791 kbps, 25,000 fps, VBR
Аудио#1: Russian (Dolby AC3, 48 KHz, 448 Kbps, 6 ch)
Аудио#2: Russian (Dolby AC3, 48 KHz, 256 Kbps, 1 ch)

Title: 12_stulyev
Size: 7.76 Gb ( 8 138 725,00 KBytes ) - DVD-9
Enabled regions: 1, 2, 3, 4, 5, 6, 7, 8

VTS_01 :
Play Length: 00:00:51
Video: PAL 4:3 (720x576) VBR
Audio:
Russian (Dolby AC3, 6 ch)

VTS_02 :
Play Length: 01:16:58+{01:16:58}
Video: PAL 4:3 (720x576) VBR
Audio:
Russian (Dolby AC3, 6 ch)
Russian (Dolby AC3, 1 ch)
Subtitles:
Russian

VTS_03 :
Play Length: 01:15:37+{01:15:37}
Video: PAL 4:3 (720x576) VBR
Audio:
Russian (Dolby AC3, 6 ch)
Russian (Dolby AC3, 1 ch)
Subtitles:
Russian

VTS_04 :
Play Length: 00:26:50
Video: PAL 4:3 (720x576) VBR
Audio:
Russian (Dolby AC3, 1 ch)

General
Complete name : VTS_02_1.VOB
Format : MPEG-PS
File size : 1 024 MiB
Duration : 24mn 45s
Overall bit rate : 5 781 Kbps

Video
ID : 224 (0xE0)
Format : MPEG Video
Format version : Version 2
Format profile : Main@Main
Format settings, BVOP : Yes
Format settings, Matrix : Default
Format settings, GOP : M=3, N=15
Duration : 24mn 45s
Bit rate mode : Variable
Bit rate : 5 034 Kbps
Width : 720 pixels
Height : 576 pixels
Display aspect ratio : 4:3
Frame rate : 25.000 fps
Standard : PAL
Color space : YUV
Chroma subsampling : 4:2:0
Bit depth : 8 bits
Scan type : Interlaced
Scan order : Top Field First
Bits/(Pixel*Frame) : 0.486
Stream size : 879 MiB (86%)

Audio #1
ID : 128 (0x80)
Format : AC-3
Format/Info : Audio Coding 3
Mode extension : CM (complete main)
Duration : 24mn 43s
Bit rate mode : Constant
Bit rate : 448 Kbps
Channel(s) : 6 channels
Channel positions : Front: L C R, Side: L R, LFE
Sampling rate : 48.0 KHz
Bit depth : 16 bits
Video delay : 1s 914ms
Stream size : 79.2 MiB (8%)

Audio #2
ID : 129 (0x81)
Format : AC-3
Format/Info : Audio Coding 3
Mode extension : CM (complete main)
Duration : 24mn 43s
Bit rate mode : Constant
Bit rate : 256 Kbps
Channel(s) : 1 channel
Channel positions : Front: C
Sampling rate : 48.0 KHz
Bit depth : 16 bits
Video delay : 1s 977ms
Stream size : 45.3 MiB (4%)

Menu


12 стульев скачать торрент


pb.wtf



Скачать
Чтобы иметь возможность скачивать с Торрент Трекера, нужно Зарегистрироваться

Как скачивать  ·  Рейтинг и ограничения



Последний раз редактировалось: Assasinca (2013-07-25 18:19), всего редактировалось 6 раз(а)

28-11-2019 20:33  

Отключить всю рекламу на сайте

25-07-2013 16:51 12 стульев Скачать торрент  

поставьте 5000 т очков релизу что бы было золотоpb.wtf



25-07-2013 17:18 12 стульев Скачать торрент  

Assasinca
Билет на Vegas вот пример правильно оформленной темы правим у себя также , и описание укажите как положено что за описание?

Цитата:

Во время революции и последовавшего за ней краткого периода военного коммунизма многие прятали свои ценности как можно надежнее. И вот Ипполит Матвеевич Воробьянинов, бывший Старгородский предводитель дворянства и светский лев, а ныне - скромный делопроизводитель ЗАГСа, узнает от умирающей тещи, что некогда она спрятала свои бриллианты и жемчуга в общей сложности на 150 000 золотых рублей под обивку одного из двенадцати стульев гостиного гарнитура работы известного мастера Гамбса. Бросив все, Воробьянинов бросается на поиски стульев, в чем ему, конечно же, небескорыстно, берется помочь молодой авантюрист, "великий комбинатор" Остап Бендер. Найти следы разрозненного гарнитура непросто. Не облегчает положения и то, что перед смертью теща Воробьянинова открыла тайну сокровищ и своему исповеднику, отцу Федору, всю жизнь мечтавшему о собственном свечном заводике в Самаре...

Assasinca писал(а):

Видео: PAL 4:3 (720x576) VBR

Тех.данные не полные.pb.wtf





Последний раз редактировалось: Ворон (2013-07-25 17:21), всего редактировалось 1 раз

29-07-2015 20:48 12 стульев Скачать торрент  

Спасибляйхтунг! Отличное кино! )))pb.wtf



06-09-2015 13:28 12 стульев Скачать торрент  

Респектpb.wtf



14-10-2015 18:39 12 стульев Скачать торрент  

спасибо!pb.wtf



    Дорогой пользователь! Огромная просьба, поблагодарите релизера, оцените раздачу и оставьте свои комментарий, если Вы скачали 12 стульев через торрент бесплатно! Внесите свою лепту в развитие PiratBit!
    Комментировать посты могут только пользователи прошедшие не сложную регистрацию
    Показать сообщения:    

    12 стульев через торрент
    Скачать бесплатно 12 стульев
    12 стульев скачать торрент
    12 стульев смотреть онлайн
    Cкачать фильм 12 стульев бесплатно
    12 стульев скачать торрент в хорошем качестве
    12 стульев смотреть онлайн бесплатно в хорошем качестве


    Вы не можете начинать темы
    Вы не можете отвечать на сообщения
    Вы не можете редактировать свои сообщения
    Вы не можете удалять свои сообщения
    Вы не можете голосовать в опросах
    Вы не можете прикреплять файлы к сообщениям
    Вы не можете скачивать файлы