Ссылка на приватное зеркало всего за 1$. Внимание количество ограничено!!!

OK

1+1

iTunes

мы

OK

1

WEB-DLRip

Джокер

Пифагор

Ведьмак / The Witcher сериал

iTunes

ПШазам

ОК

Оно 2

iTunes

30
pack

Вам бонус

ВАЖНО

!!Акция!!

Alien_RageХит недели

RePack

Resident Evil 21

ИГРА 18+

pack

RePack

jed

RePack

fifa19

RePack

Assassins Creed: Odyssey

RePack

NEED FOR SPEED™ PAYBACK

4 сезон

9 сезон

Бесстыжие 9 сезон

Все сериалы

все сериалы на PB.wtf

RePack

FAR CRY 5
  

Джон Доу / John Doe: Vigilante (Келли Долен) [2014, триллер, криминал, HDRip] Любительский (двухголосый) [den904 & DeadSno] pb.wtf

Джон Доу через торрент pb.wtf

Размер: 1.36 GB | Добавлен: 4 года 3 мес. назад | Торрент скачан:295 раз
Скачать  

17-10-2015 06:55 Джон Доу Скачать торрент  

Джон Доу / John Doe: Vigilante«Hero or Villain? Justice or Vengeance? You Decide»

  • Год выхода: 2014
  • Жанр: триллер, криминал

  • Страна: Австралия
  • Продолжительность: 01:33:24
  • Перевод: Любительский (двухголосый) [den904 & DeadSno]
  • Автор перевода: Сергей Скворцов
  • Примечание: присутствует ненормативная лексика
  • Режиссер: Келли Долен
  • В ролях:

    Дэниел Лиссинг (Jake), Джейми Бамбер (John Doe), Дитч Дейви (Detective James Clint), Лейчи Халм (Ken Rutherford), Пол О’Брайэн (Officer J.Callahan), Флетчер Хамфрис (Henry Junig), Гарри Павлидис (Alan Walker), Бен Шуманн (Boy), Брендан Клиркин (Adam McLeish), Луиз Кроуфорд (Leah), Сэм Парсонсон (Murray Wills), Хлоя Гаймер (Chloe)


  • Некоторые называют его героем. Некоторые - злодеем. Он - Джон Доу - обычный человек, который решает взять закон в свои руки. Разочарованный правовой системой, которая позволяет преступникам разгуливать на свободе, Джон Доу начинает сам вершить правосудие единственным известным ему методом - убивая преступников...

  • Качество: HDRip
  • Формат: AVI
  • Видео кодек: XviD
  • Аудио кодек: AC3
  • Видео: XviD, 720x304 (2.35:1), 1880 kbps, 24 fps, 0,358 bpp
  • Аудио: русский / AC3 / 2.0 / 48 kHz / 192 kbps / 16 bit

    Код:

    General
    Complete name                            : H:\Dzhon.Dou.2014.L2.HDRip.avi
    Format                                   : AVI
    Format/Info                              : Audio Video Interleave
    File size                                : 1.36 GiB
    Duration                                 : 1h 33mn
    Overall bit rate                         : 2 082 Kbps
    Writing application                      : VirtualDubMod 1.5.10.3 | www.virtualdub-fr.org || (build 2550/release)
    Writing library                          : VirtualDubMod build 2550/release

    Video
    ID                                       : 0
    Format                                   : MPEG-4 Visual
    Format profile                           : Advanced Simple@L5
    Format settings, BVOP                    : 1
    Format settings, QPel                    : No
    Format settings, GMC                     : No warppoints
    Format settings, Matrix                  : Custom
    Codec ID                                 : XVID
    Codec ID/Hint                            : XviD
    Duration                                 : 1h 33mn
    Bit rate                                 : 1 880 Kbps
    Width                                    : 720 pixels
    Height                                   : 304 pixels
    Display aspect ratio                     : 2.35:1
    Frame rate                               : 24.000 fps
    Color space                              : YUV
    Chroma subsampling                       : 4:2:0
    Bit depth                                : 8 bits
    Scan type                                : Progressive
    Compression mode                         : Lossy
    Bits/(Pixel*Frame)                       : 0.358
    Stream size                              : 1.23 GiB (90%)
    Writing library                          : XviD 73

    Audio
    ID                                       : 1
    Format                                   : AC-3
    Format/Info                              : Audio Coding 3
    Mode extension                           : CM (complete main)
    Codec ID                                 : 2000
    Duration                                 : 1h 33mn
    Bit rate mode                            : Constant
    Bit rate                                 : 192 Kbps
    Channel(s)                               : 2 channels
    Channel positions                        : Front: L R
    Sampling rate                            : 48.0 KHz
    Bit depth                                : 16 bits
    Compression mode                         : Lossy
    Stream size                              : 128 MiB (9%)
    Alignment                                : Split accross interleaves
    Interleave, duration                     : 42 ms (1.00 video frame)
    Interleave, preload duration             : 500 ms

    Скриншоты:


    © Оформление by -Lexx- pb.wtf



  • Скачать Джон Доу через торрент http://pic.kartinco.top/images/6/stazu.jpg Скачать фильм Джон Доу через торрент бесплантно в хорошем качестве qw.png Некоторые называют его героем. Некоторые - злодеем. Он - Джон Доу - обычный человек, который решает взять закон в свои руки. ... 9.9 10 17
    Торрент: Зарегистрирован [2015-10-17 06:55] · скачан: 295 раз
    Статус: T временная
    Размер: 1.36 GB
    Как cкачать? Как скачать Джон Доу через торрент | qTorrent

    28-11-2019 20:33  

    Отключить всю рекламу на сайте

    18-10-2015 17:39 Джон Доу Скачать торрент  

    Заслуженный рейтинг, отличный фильм рекомендую, затягивает.pb.wtf



      Дорогой пользователь! Огромная просьба, поблагодарите релизера, оцените раздачу и оставьте свои комментарий, если Вы скачали Джон Доу через торрент бесплатно! Внесите свою лепту в развитие PiratBit!
      Комментировать посты могут только пользователи прошедшие не сложную регистрацию
      Показать сообщения:    

      Джон Доу через торрент
      Скачать бесплатно Джон Доу
      Джон Доу скачать торрент
      Джон Доу смотреть онлайн
      Cкачать фильм Джон Доу бесплатно
      Джон Доу скачать торрент в хорошем качестве
      Джон Доу смотреть онлайн бесплатно в хорошем качестве


      Вы не можете начинать темы
      Вы не можете отвечать на сообщения
      Вы не можете редактировать свои сообщения
      Вы не можете удалять свои сообщения
      Вы не можете голосовать в опросах
      Вы не можете прикреплять файлы к сообщениям
      Вы можете скачивать файлы