Всегда рабочее зеркало без VPN и Proxy просто перед .vidak.icu напиши любое слово или цифру, Пример http://1rqv.vidak.icu

MVO

2 сезон

1 сезон

1

1 сезон

iTunes

2 сезон

13

1 сезон

Deluxe

pack

Рекомендуем

Пиратка

30

ВАЖНО

RePack

MK11

RePack

jed

RePack

fifa19

RePack

RDR2

RePack

NEED FOR SPEED™ PAYBACK

Кинопоиск HD

6 сезон

 Острые козырьки 6 сезон

Все сериалы

все сериалы на PB.wtf

RePack

FAR CRY 5

Anonymous, нам критически не хватает 5601 руб. на оплату серверов и переферии за Апрель, помоги нам пожалуйста, вся надежда только на тебя. В благодарность мы отключим тебе всю рекламу на сайте!

×
  
Magnet ссылка

Железный человек 3 / Iron Man 3 (Шейн Блэк) [2013, Боевик, Фантастика, Приключения, HDRip] [AVO] (Ю.Живов) pb.wtf

Железный человек 3 через торрент pb.wtf

Размер: 1.46 GB | Добавлен: 6 лет 6 мес. назад | Торрент скачан:129 раз
Смотреть онлайн Железный человек 3 | Скачать    Ребята, помогите собрать деньги на оплату серверов!!!

07-11-2015 14:13 Железный человек 3 Скачать торрент  

Железный человек 3 / Iron Man 3
Год выпуска: 2013
Производство: США, Китай
Жанр: Боевик, Фантастика, Приключения
Продолжительность: 02:10:33
Перевод: Авторский (одноголосый, закадровый) [Ю.Живов]
Субтитры: отсутствуют

Режиссер: Шейн Блэк

В ролях: Роберт Дауни мл., Гвинет Пэлтроу, Дон Чидл, Гай Пирс, Бен Кингсли, Ребекка Холл, Пол Беттани, Джон Фавро, Уильям Сэдлер, Джеймс Бэдж Дэйл Когда мир Старка рушится на его глазах по вине неизвестных противников, Тони жаждет найти виновных и свести с ними счеты. Оказавшись в безвыходной ситуации, Старк может рассчитывать только на себя и свою изобретательность, чтобы защитить тех, кто ему дорог. Это становится настоящим испытанием для героя, которому придется не только сражаться с коварным врагом, но и разобраться в себе, чтобы найти ответ на вопрос, который давно его тревожит: что важнее — человек или костюм?



Релиз от: FAGOT100 (NNM-CLUB)

Качество видео: HDRip
Формат: AVI
Видео кодек: XviD
Аудио кодек: AC3
Видео: XvID, 720x304, 1207 Kbps, 29.970 fps
Аудио: AC3, 48.0 KHz, 6 ch, 384 Kbps
скриншот   скриншот   скриншот  
Формат : AVI
Формат/Информация : Audio Video Interleave
Размер файла : 1,46 Гбайт
Продолжительность : 2 ч. 10 м.
Общий поток : 1600 Кбит/сек
Программа кодирования : VirtualDubMod 1.5.10.3 | www.virtualdub-fr.org || (build 2550/release)
Библиотека кодирования : VirtualDubMod build 2550/release

Видео
Идентификатор : 0
Формат : MPEG-4 Visual
Профиль формата : Advanced Simple@L5
Параметр BVOP формата : 1
Параметр QPel формата : Нет
Параметр GMC формата : Без точки перехода
Параметр матрицы формата : Выборочная
Идентификатор кодека : XVID
Идентификатор кодека/Подсказка : XviD
Продолжительность : 2 ч. 10 м.
Битрейт : 1207 Кбит/сек
Ширина : 720 пикселей
Высота : 304 пикселя
Соотношение сторон : 2,35:1
Частота кадров : 23,976 кадра/сек
Цветовое пространство : YUV
Субдискретизация насыщенности : 4:2:0
Битовая глубина : 8 бит
Тип развёртки : Прогрессивная
Метод сжатия : С потерями
Бит/(Пиксели*Кадры) : 0.230
Размер потока : 1,10 Гбайт (75%)
Библиотека кодирования : XviD 73

Аудио
Идентификатор : 1
Формат : AC-3
Формат/Информация : Audio Coding 3
Расширение режима : CM (complete main)
Параметр Endianness формата : Big
Идентификатор кодека : 2000
Продолжительность : 2 ч. 10 м.
Вид битрейта : Постоянный
Битрейт : 384 Кбит/сек
Каналы : 6 каналов
Расположение каналов : Front: L C R, Side: L R, LFE
Частота : 48,0 КГц
Битовая глубина : 16 бит
Метод сжатия : С потерями
Размер потока : 359 Мбайт (24%)
Выравнивание : Разделение по промежуткам
Продолжительность промежутка : 42 мс. (1,00 видеокадр)
Время предзагрузки промежутка : 500 мс.
pb.wtf



Скачать Железный человек 3 через торрент http://s009.radikal.ru/i308/1511/63/954096065db5.jpg Скачать, смотреть онлайн Железный человек 3 бесплантно в хорошем качестве В ролях: Роберт Дауни мл., Гвинет Пэлтроу, Дон Чидл, Гай Пирс, Бен Кингсли, Ребекка Холл, Пол Беттани, Джон Фавро, Уильям Сэдлер, Джеймс ... 10 10 2
Торрент: Зарегистрирован [2015-11-07 14:13] · скачан: 129 раз
Статус: √ проверено
Размер: 1.46 GB
Как cкачать? Как скачать Железный человек 3 через торрент | UTorrent

% Раздел Тема Автор DL S | L
Ultra HD (UHD: 2K, 4K, 8K) — видео сверхвысокой чёткости [ 68.28 GB ] Железный человек 3 / Iron Man 3 [2013 UHD BDRemux 2160p] DUB [] +AVO [Ю. Живов] bober100 Скачать
1 | 0
Ultra HD (UHD: 2K, 4K, 8K) — видео сверхвысокой чёткости [ 13.89 GB ] Железный человек 3 / Iron Man 3 [2013 UHD BDRip 2160p] DUB [] +AVO [Ю. Живов] bober100 Скачать
1 | 1
Фильмы с авторской озвучкой [ 2.17 GB ] Железный человек 3 / Iron Man Three [2013 BDRip Авторский одноголосый "Ю.Живов"] coc900 Скачать
1 | 0
Фильмы 2013 [DVDrip, WEB-DLRip, HDrip] [ 2.18 GB ] Железный человек 3 / Iron Man 3 [ 2013 Китай BDRip-AVC лицензия] МАКС1 Скачать
1 | 0
Фильмы 2013 [DVDrip, WEB-DLRip, HDrip] [ 1.46 GB ] Железный человек 3 / Iron Man 3 [ 2013 Китай HDRip ] DUB [ лицензия ] Ворон Скачать
1 | 0
3D Фильмы [ 43.87 GB ] Железный человек 3 / Iron Man 3 [2013 Blu-ray 3D DUB] [ISO] / BD2D|3D Half OverUnder / Вертикальная анаморфная стереопара лисяра Скачать
1 | 0
3D Фильмы [ 6.69 GB ] Железный человек 3 / Iron Man 3 [2013 BDRip 1080p лицензия] Half OverUnder / Вертикальная анаморфная стереопара slaventi-69 Скачать
1 | 0


Последний раз редактировалось: killermax2013 (2015-11-07 14:33), всего редактировалось 1 раз

28-11-2019 20:33  

Отключить всю рекламу на сайте

    Дорогой пользователь! Огромная просьба, поблагодарите релизера, оцените раздачу и оставьте свои комментарий, если Вы скачали Железный человек 3 через торрент бесплатно!
    Комментировать посты могут только пользователи прошедшие не сложную регистрацию
    Показать сообщения:    

    Железный человек 3 через торрент
    Скачать бесплатно Железный человек 3
    Железный человек 3 скачать торрент
    Железный человек 3 смотреть онлайн
    Cкачать фильм Железный человек 3 бесплатно
    Железный человек 3 скачать торрент в хорошем качестве
    Железный человек 3 смотреть онлайн бесплатно в хорошем качестве


    Вы не можете начинать темы
    Вы не можете отвечать на сообщения
    Вы не можете редактировать свои сообщения
    Вы не можете удалять свои сообщения
    Вы не можете голосовать в опросах
    Вы не можете прикреплять файлы к сообщениям
    Вы можете скачивать файлы