Всегда рабочее зеркало без VPN и Proxy просто перед .vidak.icu напиши любое слово или цифру, Пример http://co7s.vidak.icu

MVO

Лицензия

1 сезон

1

1 сезон

iTunes

1 сезон

13

1 сезон

Deluxe

pack

Рекомендуем

Пиратка

30

ВАЖНО

RePack

MK11

RePack

jed

RePack

fifa19

RePack

RDR2

RePack

NEED FOR SPEED™ PAYBACK

Кинопоиск HD

6 сезон

 Острые козырьки 6 сезон

Все сериалы

все сериалы на PB.wtf

RePack

FAR CRY 5
  
Magnet ссылка

Адмирал / Michiel de Ruyter (Роэль Рейн) [2015, боевик, биография, история, BDRip 1080p] DVO pb.wtf

Адмирал через торрент pb.wtf

Размер: 9.91 GB | Добавлен: 6 лет 11 мес. назад | Торрент скачан:131 раз
Смотреть онлайн Адмирал | Скачать    Ребята, помогите собрать деньги на оплату серверов!!!

15-07-2015 05:37 Адмирал Скачать торрент  


Адмирал / Michiel de Ruyter


ИНФОРМАЦИЯ:
Год выпуска:2015
Страна: Нидерланды
Жанр: боевик, биография, история
Продолжительность: 02:34:46
Перевод: Любительский (двухголосый) [Lucky Strike]
Субтитры: русские
Режиссер: Роэль Рейн

В Ролях:


Франк Ламерс (Michiel de Ruyter), Sanne Langelaar (Anna de Ruyter), Барри Атсма (Johan de Witt), Lieke van Lexmond (Wendela de Witt), Рёланд Фернхут (Cornelis de Witt), Эгберт Ян Вебер (Willem III), Тиго Гернандт (Van Ghent), Дерек де Линт (Kievit), Хайо Брюинс (Cornelis Tromp), Жуль Кройсет (De Graeff), Pip Pellens (Klaartje), Виктор Лёв (De Waerd)

Описание:
Михил Рюйтер был одним из самых главных новаторов в боевой технике. Он стал героем голландского флота.
В то время как Голландию, находившуюся на грани гражданской войны, атаковали со всех сторон, лишь один человек пытался бороться за интересы страны - Михаил Рюйтер. Но в глазах Влacть имущих его успехи делали его слишком популярным, и Рюйтера отправили на смертельно опасное задание...

  • Мировая премьера:26 января 2015

    ТЕХ.ДАННЫЕ:
    Качество: BDRip 1080p
    Формат: MKV
    Видео кодек: AVC
    Аудио кодек: AC3
    Видео: AVC, 1920x800 (2.40:1), 8601 kbps, 24 fps, 0,233 bpp
    Аудио №1: русский / AC3 / 2.0 / 48 kHz / 192 kbps / 16 bit ||
    Аудио №2: Dutch / AC3 / 5.1 / 48 kHz / 384 kbps / 16 bit
    Навигация по главам: есть


    Код:

    General
    Unique ID                                : 196645285228591533633379409002841594302 (0x93F0811B67EB30869028D2BC4F5959BE)
    Complete name                            : D:\Торенты\Admiral.2015.L2.BDRip.1080p.ELEKTRI4KA.mkv
    Format                                   : Matroska
    Format version                           : Version 4 / Version 2
    File size                                : 9.91 GiB
    Duration                                 : 2h 34mn
    Overall bit rate                         : 9 167 Kbps
    Movie name                               : Admiral.2015.L2.BDRip.1080p.ELEKTRI4KA.uniongang.tv [Carl Gaus]
    Encoded date                             : UTC 2015-07-14 15:06:10
    Writing application                      : mkvmerge v6.9.1 ('Blue Panther') 64bit built on Apr 18 2014 18:23:38
    Writing library                          : libebml v1.3.0 + libmatroska v1.4.1

    Video
    ID                                       : 1
    Format                                   : AVC
    Format/Info                              : Advanced Video Codec
    Format profile                           : High@L4.1
    Format settings, CABAC                   : Yes
    Format settings, ReFrames                : 5 frames
    Codec ID                                 : V_MPEG4/ISO/AVC
    Duration                                 : 2h 34mn
    Bit rate                                 : 8 601 Kbps
    Width                                    : 1 920 pixels
    Height                                   : 800 pixels
    Display aspect ratio                     : 2.40:1
    Frame rate                               : 24.000 fps
    Color space                              : YUV
    Chroma subsampling                       : 4:2:0
    Bit depth                                : 8 bits
    Scan type                                : Progressive
    Bits/(Pixel*Frame)                       : 0.233
    Stream size                              : 9.09 GiB (92%)
    Title                                    : Admiral.2015.L2.BDRip.1080p.ELEKTRI4KA.uniongang.tv [Carl Gaus]
    Writing library                          : x264 core 146 r2538 121396c
    Encoding settings                        : cabac=1 / ref=5 / deblock=1:0:0 / analyse=0x3:0x113 / me=umh / subme=8 / psy=1 / psy_rd=1.00:0.00 / mixed_ref=1 / me_range=16 / chroma_me=1 / trellis=1 / 8x8dct=1 / cqm=0 / deadzone=21,11 / fast_pskip=0 / chroma_qp_offset=-2 / threads=6 / lookahead_threads=1 / sliced_threads=0 / nr=0 / decimate=1 / interlaced=0 / bluray_compat=0 / constrained_intra=0 / bframes=3 / b_pyramid=2 / b_adapt=2 / b_bias=0 / direct=3 / weightb=1 / open_gop=0 / weightp=2 / keyint=250 / keyint_min=24 / scenecut=40 / intra_refresh=0 / rc_lookahead=50 / rc=2pass / mbtree=1 / bitrate=8601 / ratetol=1.0 / qcomp=0.60 / qpmin=0 / qpmax=69 / qpstep=4 / cplxblur=20.0 / qblur=0.5 / ip_ratio=1.40 / aq=1:1.00
    Default                                  : Yes
    Forced                                   : No

    Audio #1
    ID                                       : 2
    Format                                   : AC-3
    Format/Info                              : Audio Coding 3
    Mode extension                           : CM (complete main)
    Codec ID                                 : A_AC3
    Duration                                 : 2h 34mn
    Bit rate mode                            : Constant
    Bit rate                                 : 192 Kbps
    Channel(s)                               : 2 channels
    Channel positions                        : Front: L R
    Sampling rate                            : 48.0 KHz
    Bit depth                                : 16 bits
    Compression mode                         : Lossy
    Stream size                              : 213 MiB (2%)
    Title                                    : Lucky Strike [L2] - Admiral.2015.L2.BDRip.1080p.ELEKTRI4KA.uniongang.tv [Carl Gaus]
    Language                                 : Russian
    Default                                  : Yes
    Forced                                   : No

    Audio #2
    ID                                       : 3
    Format                                   : AC-3
    Format/Info                              : Audio Coding 3
    Mode extension                           : CM (complete main)
    Codec ID                                 : A_AC3
    Duration                                 : 2h 34mn
    Bit rate mode                            : Constant
    Bit rate                                 : 384 Kbps
    Channel(s)                               : 6 channels
    Channel positions                        : Front: L C R, Side: L R, LFE
    Sampling rate                            : 48.0 KHz
    Bit depth                                : 16 bits
    Compression mode                         : Lossy
    Stream size                              : 425 MiB (4%)
    Title                                    : Admiral.2015.L2.BDRip.1080p.ELEKTRI4KA.uniongang.tv [Carl Gaus]
    Language                                 : Dutch
    Default                                  : No
    Forced                                   : No

    Text
    ID                                       : 4
    Format                                   : UTF-8
    Codec ID                                 : S_TEXT/UTF8
    Codec ID/Info                            : UTF-8 Plain Text
    Title                                    : Admiral.2015.L2.BDRip.1080p.ELEKTRI4KA.uniongang.tv [Carl Gaus]
    Language                                 : Russian
    Default                                  : Yes
    Forced                                   : Yes

    Menu
    00:00:00.000                             : en:00:00:00.000
    00:11:37.875                             : en:00:11:37.875
    00:16:36.958                             : en:00:16:36.958
    00:33:21.917                             : en:00:33:21.917
    01:00:34.083                             : en:01:00:34.083
    01:07:43.250                             : en:01:07:43.250
    01:10:02.125                             : en:01:10:02.125
    01:21:11.292                             : en:01:21:11.292
    01:22:32.625                             : en:01:22:32.625
    01:59:28.250                             : en:01:59:28.250

    Скриншоты:


    © Оформление by Ворон
    pb.wtf



  • Скачать Адмирал через торрент https://pic1.kartinco.top/images/61/ordi9.jpg Скачать, смотреть онлайн Адмирал бесплантно в хорошем качестве Описание: Михил Рюйтер был одним из самых главных новаторов в боевой технике. Он стал героем голландского флота. В то время как Голландию, ... 10 10 3
    Торрент: Зарегистрирован [2015-07-15 05:38] · скачан: 131 раз
    Статус: T временная
    Размер: 9.91 GB
    Как cкачать? Как скачать Адмирал через торрент | UTorrent

    % Раздел Тема Автор DL S | L
    T Фильмы 2015 (Звук TS, Cam, VO, DVO) [ 2.73 GB ] Адмирал / Michiel de Ruyter [2015 биография история HDRip] DVO Ворон Скачать
    1 | 0
    T Фильмы 2015 (Звук TS, Cam, VO, DVO) [ 2.05 GB ] Адмирал / Michiel de Ruyter [2015 биография история HDRip] DVO Ворон Скачать
    1 | 0
    T Фильмы 2015 (Звук TS, Cam, VO, DVO) [ 1.46 GB ] Адмирал / Michiel de Ruyter [2015 биография история HDRip] DVO Ворон Скачать
    1 | 0

    28-11-2019 20:33  

    Отключить всю рекламу на сайте

    14-11-2015 12:52 Адмирал Скачать торрент  

    когда в 5.1?pb.wtf



      Дорогой пользователь! Огромная просьба, поблагодарите релизера, оцените раздачу и оставьте свои комментарий, если Вы скачали Адмирал через торрент бесплатно!
      Комментировать посты могут только пользователи прошедшие не сложную регистрацию
      Показать сообщения:    

      Адмирал через торрент
      Скачать бесплатно Адмирал
      Адмирал скачать торрент
      Адмирал смотреть онлайн
      Cкачать фильм Адмирал бесплатно
      Адмирал скачать торрент в хорошем качестве
      Адмирал смотреть онлайн бесплатно в хорошем качестве


      Вы не можете начинать темы
      Вы не можете отвечать на сообщения
      Вы не можете редактировать свои сообщения
      Вы не можете удалять свои сообщения
      Вы не можете голосовать в опросах
      Вы не можете прикреплять файлы к сообщениям
      Вы можете скачивать файлы