Marvel's Avengers Deluxe Edition (супер цена) 159р. Внимание количество ограничено!!!

2 сезон

iTunes

iTunes

1

iTunes

iTunes

iTunes

WEBRip

iTunes

30
pack

Новость дня

ВАЖНО

!!Акция!!

Alien_RageХит недели

RePack

Horizon Zero Dawn

ИГРА 18+

pack

RePack

jed

!!Акция!!

Alien_Rage

RePack

fifa19

RePack

Assassins Creed: Odyssey

RePack

NEED FOR SPEED™ PAYBACK

4 сезон

9 сезон

Бесстыжие 9 сезон

Все сериалы

все сериалы на PB.wtf

RePack

FAR CRY 5
  

Прежде чем мы расстанемся / Before We Go (Крис Эванс / Chris Evans) [2014, США, драма, мелодрама, комедия, BDRip-AVC от sokol_ok] MVO pb.wtf

Прежде чем мы расстанемся через торрент pb.wtf

Раздают: 1 [ 0 KB/s ]
Размер: 1.46 GB | Добавлен: 4 года 10 мес. назад | Торрент скачан:306 раз
Скачать  

15-11-2015 11:04 Прежде чем мы расстанемся Скачать торрент  

Прежде чем мы расстанемся
Before We Go

«One night can change your whole life»


Страна: США
Жанр: драма, мелодрама, комедия

Год выпуска: 2014
Продолжительность: 01:35:24

Перевод: Любительский (многоголосый, закадровый) [Студия "CCK Media Production" и NesTea]
Субтитры: русские, английские, английские (SDH)
Оригинальная аудиодорожка: нет

Режиссер: Крис Эванс / Chris Evans

В ролях: Крис Эванс, Элис Ив, Мария Брейман, Эмма Фитцпатрик, Скотт Эванс, Бет Катехис, Джон Каллам, Марк Кассен, Дэниэл Спинк, Кевин Керолан, Пол Монте мл., Turhan Caylak

Описание:
Мужчина и женщина, ранее не знавшие друг друга, проводят ночь вместе. Противоречия, испытываемые героями в жизни, становятся основой для исследования друг друга и самих себя. Релиз:

Автор рипа: Stalker oK

Сэмпл

Качество видео: BDRip-AVC [Blu-ray Remux 1080p]
Формат видео: MKV
Видео кодек: AVC
Аудио кодек: AC3
Видео: 1746 Кбит/сек, 932x504 (16:9), 23,976 кадр/сек, AVC
Аудио: русский, 448 Кбит/сек, 44 КГц, 16 бит, 5.1, AC3
Навигация по главам: есть

Состав дикторов: Андрей (ZikWal) Вишниветский, Даниил Сердюков, Александр Гринев, Андрей Гавжеев, Юлия Вишниветская, Евгений Труфанов, NesTea
Фильм переведен: Pandem и Polmila
General
Unique ID : 251501990454325925905848154863674112629 (0xBD35857DACCB09D783EDCA415174BA75)
Complete name : M:\Rips\Before We Go\Before.We.Go.2014.BDRip-AVC.MVO.1.45Gb...stalkerok.new-team.mkv
Format : Matroska
File size : 1.46 GiB
Duration : 1h 35mn
Overall bit rate : 2 190 Kbps
Movie name : Before We Go (2014) (New-Team) (Rip by Stalker oK)
Encoded date : UTC 2015-11-15 10:28:48
Writing application : mkvmerge v7.9.0 ('Birds') 64bit
Writing library : libebml v1.3.1 + libmatroska v1.4.2

Video
ID : 1
Format : AVC
Format/Info : Advanced Video Codec
Format profile : High@L4.1
Format settings, CABAC : Yes
Format settings, ReFrames : 13 frames
Codec ID : V_MPEG4/ISO/AVC
Duration : 1h 35mn
Bit rate : 1 746 Kbps
Width : 932 pixels
Height : 504 pixels
Display aspect ratio : 16:9
Frame rate : 23.976 fps
Color space : YUV
Chroma subsampling : 4:2:0
Bit depth : 8 bits
Scan type : Progressive
Bits/(Pixel*Frame) : 0.155
Stream size : 1.13 GiB (78%)
Title : Before We Go (2014) (New-Team) (Rip by Stalker oK)
Writing library : x264 core 146 r2538kMod 121396c
Encoding settings : cabac=1 / ref=13 / deblock=1:-3:-3 / analyse=0x3:0x133 / me=umh / subme=11 / psy=1 / fade_compensate=0.00 / psy_rd=1.00:0.12 / mixed_ref=1 / me_range=48 / chroma_me=1 / trellis=2 / 8x8dct=1 / cqm=0 / deadzone=21,11 / fast_pskip=0 / chroma_qp_offset=-3 / threads=12 / lookahead_threads=3 / sliced_threads=0 / nr=0 / decimate=0 / interlaced=0 / bluray_compat=0 / constrained_intra=0 / fgo=0 / bframes=14 / b_pyramid=2 / b_adapt=2 / b_bias=0 / direct=3 / weightb=1 / open_gop=0 / weightp=2 / keyint=240 / keyint_min=23 / scenecut=40 / intra_refresh=0 / rc_lookahead=60 / rc=2pass / mbtree=0 / bitrate=1746 / ratetol=1.0 / qcomp=0.70 / qpmin=0 / qpmax=69 / qpstep=4 / cplxblur=20.0 / qblur=0.5 / vbv_maxrate=50000 / vbv_bufsize=62500 / nal_hrd=none / filler=0 / ip_ratio=1.40 / pb_ratio=1.30 / aq=3:0.90

Audio
ID : 2
Format : AC-3
Format/Info : Audio Coding 3
Mode extension : CM (complete main)
Codec ID : A_AC3
Duration : 1h 35mn
Bit rate mode : Constant
Bit rate : 448 Kbps
Channel(s) : 6 channels
Channel positions : Front: L C R, Side: L R, LFE
Sampling rate : 44.1 KHz
Bit depth : 16 bits
Compression mode : Lossy
Delay relative to video : 4ms
Stream size : 306 MiB (20%)
Title : Студия "CCK Media Production" и NesTea
Language : Russian

Text #1
ID : 3
Format : UTF-8
Codec ID : S_TEXT/UTF8
Codec ID/Info : UTF-8 Plain Text
Language : Russian

Text #2
ID : 4
Format : UTF-8
Codec ID : S_TEXT/UTF8
Codec ID/Info : UTF-8 Plain Text
Language : English

Text #3
ID : 5
Format : UTF-8
Codec ID : S_TEXT/UTF8
Codec ID/Info : UTF-8 Plain Text
Title : SDH
Language : English

Menu
00:00:00.000 : en:Chapter 1
00:04:17.548 : en:Chapter 2
00:09:50.505 : en:Chapter 3
00:15:49.572 : en:Chapter 4
00:19:56.903 : en:Chapter 5
00:25:43.375 : en:Chapter 6
00:32:26.568 : en:Chapter 7
00:38:29.347 : en:Chapter 8
00:43:42.286 : en:Chapter 9
00:48:25.485 : en:Chapter 10
00:55:04.009 : en:Chapter 11
01:04:37.414 : en:Chapter 12
01:11:13.269 : en:Chapter 13
01:18:03.720 : en:Chapter 14
01:24:07.582 : en:Chapter 15
01:29:14.097 : en:Chapter 16
pb.wtf



Скачать Прежде чем мы расстанемся через торрент http://i72.fastpic.ru/big/2015/0531/46/68ef8a2783b58e5344cc30bbd3f1b046.png Скачать фильм Прежде чем мы расстанемся через торрент бесплантно в хорошем качестве Описание:Мужчина и женщина, ранее не знавшие друг друга, проводят ночь вместе. Противоречия, испытываемые героями в жизни, становятся ... 8.6 10 13
Торрент: Зарегистрирован [2015-11-15 11:04] · скачан: 306 раз
Статус: T временная
Размер: 1.46 GB
Как cкачать? Как скачать Прежде чем мы расстанемся через торрент | qTorrent

% Раздел Тема Автор DL S | L
Фильмы [HD 720p, 1080p] (Хороший звук DUB, MVO) [ 12.04 GB ] Прежде чем мы расстанемся / Before We Go [2014 BDRip 1080p] MVO [Good People] bober100 Скачать
3 | 0
Фильмы [HD 720p, 1080p] (Хороший звук DUB, MVO) [ 5.29 GB ] Прежде чем мы расстанемся / Before We Go [2014 BDRip 720p] MVO [Good People] bober100 Скачать
2 | 0
Фильмы 2014 [DVDrip, WEB-DLRip, HDrip] [ 1.46 GB ] Прежде чем мы расстанемся / Before We Go [2014 BDRip] MVO [Good People] bober100 Скачать
5 | 0
T Фильмы 2014 (Звук TS, Cam, VO, DVO) [ 2.18 GB ] Прежде чем мы расстанемся / Before We Go [2014 BDRip-AVC от sokol_ok] MVO sokol_ok Скачать
1 | 0

28-11-2019 20:33  

Отключить всю рекламу на сайте

    Дорогой пользователь! Огромная просьба, поблагодарите релизера, оцените раздачу и оставьте свои комментарий, если Вы скачали Прежде чем мы расстанемся через торрент бесплатно! Внесите свою лепту в развитие PiratBit!
    Комментировать посты могут только пользователи прошедшие не сложную регистрацию
    Показать сообщения:    

    Прежде чем мы расстанемся через торрент
    Скачать бесплатно Прежде чем мы расстанемся
    Прежде чем мы расстанемся скачать торрент
    Прежде чем мы расстанемся смотреть онлайн
    Cкачать фильм Прежде чем мы расстанемся бесплатно
    Прежде чем мы расстанемся скачать торрент в хорошем качестве
    Прежде чем мы расстанемся смотреть онлайн бесплатно в хорошем качестве


    Вы не можете начинать темы
    Вы не можете отвечать на сообщения
    Вы не можете редактировать свои сообщения
    Вы не можете удалять свои сообщения
    Вы не можете голосовать в опросах
    Вы не можете прикреплять файлы к сообщениям
    Вы можете скачивать файлы