Ссылка на приватное зеркало нашего сайта всего за 1$. Внимание количество ограничено!!!

2 сезон

iTunes

1 сезон

1

iTunes

iTunes

iTunes

1 сезон

RePack

30

ИГРА 18+

pack

ВАЖНО

!!Акция!!

Alien_RageХит недели

RePack

MK11
pack

Забери бонус

RePack

jed

!!Акция!!

Alien_Rage

RePack

fifa19

RePack

Assassins Creed: Odyssey

RePack

NEED FOR SPEED™ PAYBACK

4 сезон

9 сезон

Бесстыжие 9 сезон

Все сериалы

все сериалы на PB.wtf

RePack

FAR CRY 5
  

Хитмэн: Агент 47 / Hitman: Agent 47 (Александр Бах) [2015, боевик, триллер, HDRip-AVC] [DUB] [Лицензия] pb.wtf

Хитмэн: Агент 47 через торрент pb.wtf

Размер: 1.36 GB | Добавлен: 4 года 11 мес. назад | Торрент скачан:255 раз
Скачать  

17-11-2015 13:10 Хитмэн: Агент 47 Скачать торрент  

Хитмэн: Агент 47 / Hitman: Agent 47

Год выпуска фильма: 2015
Страна: США
Жанр: боевик, триллер
Продолжительность: 01:36:16
Перевод: Дублированный [Лицензия]
субтитры: нет

Режиссер: Александр Бах

В ролях: Руперт Френд, Закари Куинто, Ханна Уэр, Киран Хайндс, Томас Кречман, Эмилио Ривера, Дэн Баккедаль, Джерри Хоффманн, Дэвид Брюкнер, Рольф Канис

Описание: История об элитном убийце, созданном при помощи генной инженерии, который объединяется с женщиной, чтобы помочь ей найти отца и раскрыть тайну своего происхождения.



Качество: HDRip-AVC
Формат видео: MKV
Видео кодек: x.264
Аудио кодек: AC3
Видео: MPEG-4 AVC, 1588 Кбит/с, 720x304, 23.976 fps, 0.303 bit/pixel
Аудио: 48 kHz, AC3 Dolby Digital, 3/2 (L,C,R,l,r) + LFE ch, ~448 kbps
General
Unique ID : 253335889725831303388127925689780405039 (0xBE96B7B4B4976865B4A6FC71CAF2032F)
Complete name : E:\INTERNET\Hitman.Agent.47.2015.BDRip.x264.Rus-HDT.mkv
Format : Matroska
Format version : Version 2
File size : 1.36 GiB
Duration : 1h 36mn
Overall bit rate : 2 030 Kbps
Encoded date : UTC 2015-11-17 11:07:47
Writing application : mkvmerge v7.9.0 ('Birds') 64bit
Writing library : libebml v1.3.1 + libmatroska v1.4.2

Video
ID : 1
Format : AVC
Format/Info : Advanced Video Codec
Format profile : High@L4.1
Format settings, CABAC : Yes
Format settings, ReFrames : 12 frames
Codec ID : V_MPEG4/ISO/AVC
Duration : 1h 36mn
Bit rate : 1 588 Kbps
Width : 720 pixels
Height : 304 pixels
Display aspect ratio : 2.35:1
Frame rate mode : Constant
Frame rate : 23.976 fps
Color space : YUV
Chroma subsampling : 4:2:0
Bit depth : 8 bits
Scan type : Progressive
Bits/(Pixel*Frame) : 0.303
Stream size : 1.04 GiB (76%)
Writing library : x264 core 148 r2638 7599210
Encoding settings : cabac=1 / ref=12 / deblock=1:-3:-3 / analyse=0x3:0x113 / me=umh / subme=10 / psy=1 / psy_rd=1.05:0.00 / mixed_ref=1 / me_range=32 / chroma_me=1 / trellis=2 / 8x8dct=1 / cqm=0 / deadzone=21,11 / fast_pskip=0 / chroma_qp_offset=-2 / threads=9 / lookahead_threads=1 / sliced_threads=0 / nr=0 / decimate=0 / interlaced=0 / bluray_compat=0 / constrained_intra=0 / bframes=9 / b_pyramid=2 / b_adapt=2 / b_bias=0 / direct=3 / weightb=1 / open_gop=1 / weightp=2 / keyint=240 / keyint_min=23 / scenecut=40 / intra_refresh=0 / rc=2pass / mbtree=0 / bitrate=1588 / ratetol=1.0 / qcomp=0.60 / qpmin=0 / qpmax=69 / qpstep=4 / cplxblur=20.0 / qblur=0.5 / ip_ratio=1.40 / pb_ratio=1.30 / aq=3:0.80
Language : English
Default : Yes
Forced : No

Audio
ID : 2
Format : AC-3
Format/Info : Audio Coding 3
Mode extension : CM (complete main)
Format settings, Endianness : Big
Codec ID : A_AC3
Duration : 1h 36mn
Bit rate mode : Constant
Bit rate : 448 Kbps
Channel(s) : 6 channels
Channel positions : Front: L C R, Side: L R, LFE
Sampling rate : 48.0 KHz
Compression mode : Lossy
Stream size : 309 MiB (22%)
Language : Russian
Default : Yes
Forced : No

Menu
00:00:00.000 : en:00:00:00.000
00:07:11.348 : en:00:07:11.348
00:09:02.959 : en:00:09:02.959
00:13:11.582 : en:00:13:11.582
00:16:21.606 : en:00:16:21.606
00:19:22.787 : en:00:19:22.787
00:24:43.816 : en:00:24:43.816
00:27:19.179 : en:00:27:19.179
00:30:18.692 : en:00:30:18.692
00:33:03.815 : en:00:33:03.815
00:38:18.713 : en:00:38:18.713
00:43:11.756 : en:00:43:11.756
00:46:53.436 : en:00:46:53.436
00:50:39.870 : en:00:50:39.870
00:54:02.531 : en:00:54:02.531
00:59:50.587 : en:00:59:50.587
01:06:01.749 : en:01:06:01.749
01:09:06.142 : en:01:09:06.142
01:13:23.190 : en:01:13:23.190
01:16:55.319 : en:01:16:55.319
01:21:15.746 : en:01:21:15.746
01:25:20.824 : en:01:25:20.824
01:28:06.156 : en:01:28:06.156
01:31:17.847 : en:01:31:17.847[/code]
pb.wtf



Скачать Хитмэн: Агент 47 через торрент http://i69.fastpic.ru/big/2015/0829/08/d2e1afff1ef5aac640fba6eec6cf6f08.jpg Скачать фильм Хитмэн: Агент 47 через торрент бесплантно в хорошем качестве Описание: История об элитном убийце, созданном при помощи генной инженерии, который объединяется с женщиной, чтобы помочь ей найти отца и ... 9 10 11
Торрент: Зарегистрирован [2015-11-17 13:10] · скачан: 255 раз
Статус: √ проверено
Размер: 1.36 GB
Как cкачать? Как скачать Хитмэн: Агент 47 через торрент | qTorrent

% Раздел Тема Автор DL S | L
Ultra HD (UHD: 2K, 4K, 8K) — видео сверхвысокой чёткости [ 39.04 GB ] Хитмэн: Агент 47 / Hitman: Agent 47 [2015 UHD Blu-ray 2160p] DUB sheker187 Скачать
1 | 0
Ultra HD (UHD: 2K, 4K, 8K) — видео сверхвысокой чёткости [ 34.65 GB ] Хитмэн: Агент 47 / Hitman: Agent 47 [2015 UHD BDRemux 2160p] DUB [] bober100 Скачать
1 | 0
Фильмы 2015 [DVDrip, WEB-DLRip, HDrip] [ 2.17 GB ] Хитмэн: Агент 47 / Hitman: Agent 47 [2015 Германия Индонезия BDRip-AVC от sokol_ok] DUB sokol_ok Скачать
2 | 0
Фильмы [HD 720p, 1080p] (Хороший звук DUB, MVO) [ 4.34 GB ] Хитмэн: Агент 47 / Hitman: Agent 47 [2015 BDRip 720p] DUB potroks Скачать
1 | 0
Фильмы (HD 720p, 1080p) (48-60 fps) [ 9.7 GB ] Хитмэн: Агент 47 / Hitman: Agent 47 [2015 Германия Сингапур BDRip 720p / 60 fps ] от R.G. HD-Films Ressident Скачать
4 | 0
Фильмы [HD 720p, 1080p] (Хороший звук DUB, MVO) [ 9.56 GB ] Хитмэн: Агент 47 / Hitman: Agent 47 [2015 BDRip 1080p - [ ] Ворон Скачать
2 | 0
Фильмы 2015 [DVDrip, WEB-DLRip, HDrip] [ 1.46 GB ] Хитмэн: Агент 47 / Hitman: Agent 47 [2015 Германия Индонезия BDRip-AVC от sokol_ok] DUB sokol_ok Скачать
2 | 0

28-11-2019 20:33  

Отключить всю рекламу на сайте

    Дорогой пользователь! Огромная просьба, поблагодарите релизера, оцените раздачу и оставьте свои комментарий, если Вы скачали Хитмэн: Агент 47 через торрент бесплатно! Внесите свою лепту в развитие PiratBit!
    Комментировать посты могут только пользователи прошедшие не сложную регистрацию
    Показать сообщения:    

    Хитмэн: Агент 47 через торрент
    Скачать бесплатно Хитмэн: Агент 47
    Хитмэн: Агент 47 скачать торрент
    Хитмэн: Агент 47 смотреть онлайн
    Cкачать фильм Хитмэн: Агент 47 бесплатно
    Хитмэн: Агент 47 скачать торрент в хорошем качестве
    Хитмэн: Агент 47 смотреть онлайн бесплатно в хорошем качестве


    Вы не можете начинать темы
    Вы не можете отвечать на сообщения
    Вы не можете редактировать свои сообщения
    Вы не можете удалять свои сообщения
    Вы не можете голосовать в опросах
    Вы не можете прикреплять файлы к сообщениям
    Вы можете скачивать файлы