Ссылка на приватное зеркало нашего сайта всего за 1$. Внимание количество ограничено!!!

2 сезон

iTunes

1 сезон

1

2 сезон

2 сезон

iTunes

1 сезон

RePack

30

Новинка

ВАЖНО

ИГРА 18+

pack

RePack

MK11
pack

Забери бонус

RePack

jed

!!Акция!!

Alien_Rage

RePack

fifa19

RePack

Assassins Creed: Odyssey

RePack

NEED FOR SPEED™ PAYBACK

4 сезон

9 сезон

Бесстыжие 9 сезон

Все сериалы

все сериалы на PB.wtf

RePack

FAR CRY 5
  

Наследство / Hush (Джонатан Дэрби) [1998, триллер, драма, BDRip 720p by msltel] DUB, MVO pb.wtf

Наследство через торрент pb.wtf

Размер: 4.59 GB | Добавлен: 5 лет назад | Торрент скачан:26 раз
Скачать  

28-11-2015 07:10 Наследство Скачать торрент  

Название: Наследство
Оригинальное название: Hush
Год выпуска: 1998
Страна: США
Жанр: триллер, драма
Продолжительность: 01:35:53
Перевод: дублированный, профессиональный многоголосый

Режиссёр: Джонатан Дэрби

В ролях: Джессика Лэнг, Гвинет Пэлтроу, Джонатон Шаех, Нина Фош, Деби Мейзар, Каюлани Ли, Дэвид Торнтон, Хэл Холбрук, Ричард Лайнбэк, Ричард Кон, Фэйт Поттс, Том Стори, Джолин Кэрролл, Джейкоб Пресс, Джо Инскоу, Катрин Шаффнер, Ленни Стейнлайн, Рик Грэй, Том Холмс, Оуэн Валентайн, Рикардо Мигель Янг, Вуди Робертсон мл., Чарльз Томас Бакстер, Джэйн Хесс, Сара Элспас, Ребекка Элспас, Джейкоб Элспас, Диандра Ньюлайн, Роб Робинсон

Описание: Хелен встречает мужчину своей мечты. Они переезжают в роскошное поместье вдали от шумного города. Но Хелен не получает долгожданного счастья. Напротив, её жизнь превращается в ад. У девушки появляется жестокая соперница, которая ненавидит Хелен и любым способом хочет от неё избавиться. Но она – не любовница её мужа и даже не тайная поклонница. Она… его мать.



Качество: BDRip 720p Сравнение с исходником
Формат: MKV
Видео: MPEG-4 AVC, 5685 Кбит/с, 1280x694, 23,976 кадра/с
Аудио 1: русский, AC3, 384 kbps, 6 ch, 48 kHz [дублированный]
Аудио 2: русский, AC3, 192 kbps, 2 ch, 48 kHz [профессиональный многоголосый]
Аудио 3: английский, AC3, 448 kbps, 6 ch, 48 kHz [оригинал]
Субтитры: русские
Общее
Уникальный идентификатор : 215053251998209765919605880429192275337 (0xA1C9BFF0AC27C6E9B99D9BE21B79E589)
Полное имя : D:\Video\Наследство.1998.BDRip.720p.mkv
Формат : Matroska
Версия формата : Version 4 / Version 2
Размер файла : 4,59 Гбайт
Продолжительность : 1 ч. 35 м.
Общий поток : 6845 Кбит/сек
Дата кодирования : UTC 2015-11-27 15:07:37
Программа кодирования : mkvmerge v8.2.0 ('World of Adventure') 64bit
Библиотека кодирования : libebml v1.3.1 + libmatroska v1.4.2
DURATION : 01:31:11.131000000
NUMBER_OF_FRAMES : 739
NUMBER_OF_BYTES : 50573
_STATISTICS_WRITING_APP : mkvmerge v8.2.0 ('World of Adventure') 64bit
_STATISTICS_WRITING_DATE_UTC : 2015-11-27 15:07:37
_STATISTICS_TAGS : BPS DURATION NUMBER_OF_FRAMES NUMBER_OF_BYTES

Видео
Идентификатор : 1
Формат : AVC
Формат/Информация : Advanced Video Codec
Профиль формата : High@L4.1
Параметр CABAC формата : Да
Параметр ReFrames формата : 9 кадров
Идентификатор кодека : V_MPEG4/ISO/AVC
Продолжительность : 1 ч. 35 м.
Битрейт : 5685 Кбит/сек
Ширина : 1280 пикселей
Высота : 694 пикселя
Соотношение сторон : 1,85:1
Режим частоты кадров : Постоянный
Частота кадров : 23,976 кадра/сек
Цветовое пространство : YUV
Субдискретизация насыщенности : 4:2:0
Битовая глубина : 8 бит
Тип развёртки : Прогрессивная
Бит/(Пиксели*Кадры) : 0.267
Размер потока : 3,81 Гбайт (83%)
Библиотека кодирования : x264 core 146 r2538 121396c
Настройки программы : cabac=1 / ref=9 / deblock=1:-1:-1 / analyse=0x3:0x113 / me=umh / subme=10 / psy=1 / psy_rd=1.00:0.15 / mixed_ref=1 / me_range=32 / chroma_me=1 / trellis=2 / 8x8dct=1 / cqm=0 / deadzone=21,11 / fast_pskip=1 / chroma_qp_offset=-3 / threads=6 / lookahead_threads=1 / sliced_threads=0 / nr=0 / decimate=1 / interlaced=0 / bluray_compat=0 / constrained_intra=0 / bframes=12 / b_pyramid=2 / b_adapt=2 / b_bias=0 / direct=1 / weightb=1 / open_gop=0 / weightp=2 / keyint=230 / keyint_min=23 / scenecut=40 / intra_refresh=0 / rc_lookahead=40 / rc=crf / mbtree=0 / crf=19.3 / qcomp=0.60 / qpmin=0 / qpmax=69 / qpstep=4 / vbv_maxrate=40000 / vbv_bufsize=50000 / crf_max=0.0 / nal_hrd=none / filler=0 / ip_ratio=1.40 / pb_ratio=1.30 / aq=1:1.00
Язык : English
Default : Да
Forced : Нет
DURATION : 01:35:53.748000000
NUMBER_OF_FRAMES : 137952
NUMBER_OF_BYTES : 4184973156
_STATISTICS_WRITING_APP : mkvmerge v8.2.0 ('World of Adventure') 64bit
_STATISTICS_WRITING_DATE_UTC : 2015-11-27 15:07:37
_STATISTICS_TAGS : BPS DURATION NUMBER_OF_FRAMES NUMBER_OF_BYTES

Аудио #1
Идентификатор : 2
Формат : AC-3
Формат/Информация : Audio Coding 3
Расширение режима : CM (complete main)
Параметр Endianness формата : Big
Идентификатор кодека : A_AC3
Продолжительность : 1 ч. 35 м.
Вид битрейта : Постоянный
Битрейт : 384 Кбит/сек
Каналы : 6 каналов
Расположение каналов : Front: L C R, Side: L R, LFE
Частота : 48,0 КГц
Метод сжатия : С потерями
Размер потока : 263 Мбайт (6%)
Заголовок : DUB
Язык : Russian
Default : Да
Forced : Нет

Аудио #2
Идентификатор : 3
Формат : AC-3
Формат/Информация : Audio Coding 3
Расширение режима : CM (complete main)
Параметр Endianness формата : Big
Идентификатор кодека : A_AC3
Продолжительность : 1 ч. 35 м.
Вид битрейта : Постоянный
Битрейт : 192 Кбит/сек
Каналы : 2 канала
Расположение каналов : Front: L R
Частота : 48,0 КГц
Метод сжатия : С потерями
Размер потока : 132 Мбайт (3%)
Заголовок : MVO
Язык : Russian
Default : Нет
Forced : Нет

Аудио #3
Идентификатор : 4
Формат : AC-3
Формат/Информация : Audio Coding 3
Расширение режима : CM (complete main)
Параметр Endianness формата : Big
Идентификатор кодека : A_AC3
Продолжительность : 1 ч. 35 м.
Вид битрейта : Постоянный
Битрейт : 448 Кбит/сек
Каналы : 6 каналов
Расположение каналов : Front: L C R, Side: L R, LFE
Частота : 48,0 КГц
Метод сжатия : С потерями
Размер потока : 307 Мбайт (7%)
Заголовок : Original
Язык : English
Default : Нет
Forced : Нет

Текст
Идентификатор : 5
Формат : UTF-8
Идентификатор кодека : S_TEXT/UTF8
Идентификатор кодека/Информация : UTF-8 Plain Text
Заголовок : русский
Язык : Russian
Default : Нет
Forced : Нет
pb.wtf



Скачать Наследство через торрент http://s017.radikal.ru/i407/1511/6b/72bccd79b9c8.png Скачать фильм Наследство через торрент бесплантно в хорошем качестве Описание: Хелен встречает мужчину своей мечты. Они переезжают в роскошное поместье вдали от шумного города. Но Хелен не получает ... 10 10 2
Info! Золотая раздача, скачанное не засчитывается.
Торрент: Зарегистрирован [2015-11-28 07:10] · скачан: 26 раз
Статус: √ проверено
Размер: 4.59 GB
Как cкачать? Как скачать Наследство через торрент | qTorrent

% Раздел Тема Автор DL S | L
Фильмы [HD 720p, 1080p] (Хороший звук DUB, MVO) [ 11.75 GB ] Наследство / Hush [1998 BDRip 1080p by msltel] DUB MVO msltel Скачать
1 | 0
Фильмы до 2000 г. [ 2.65 GB ] Наследство / Hush [1998 BDRip AVC by msltel] DUB MVO msltel Скачать
1 | 0

28-11-2019 20:33  

Отключить всю рекламу на сайте

    Дорогой пользователь! Огромная просьба, поблагодарите релизера, оцените раздачу и оставьте свои комментарий, если Вы скачали Наследство через торрент бесплатно! Внесите свою лепту в развитие PiratBit!
    Комментировать посты могут только пользователи прошедшие не сложную регистрацию
    Показать сообщения:    

    Наследство через торрент
    Скачать бесплатно Наследство
    Наследство скачать торрент
    Наследство смотреть онлайн
    Cкачать фильм Наследство бесплатно
    Наследство скачать торрент в хорошем качестве
    Наследство смотреть онлайн бесплатно в хорошем качестве


    Вы не можете начинать темы
    Вы не можете отвечать на сообщения
    Вы не можете редактировать свои сообщения
    Вы не можете удалять свои сообщения
    Вы не можете голосовать в опросах
    Вы не можете прикреплять файлы к сообщениям
    Вы можете скачивать файлы