Ссылка на приватное зеркало нашего сайта всего за 1$. Внимание количество ограничено!!!

2 сезон

iTunes

1 сезон

1

iTunes

iTunes

iTunes

1 сезон

RePack

30

ИГРА 18+

pack

ВАЖНО

!!Акция!!

Alien_RageХит недели

RePack

MK11
pack

Забери бонус

RePack

jed

!!Акция!!

Alien_Rage

RePack

fifa19

RePack

Assassins Creed: Odyssey

RePack

NEED FOR SPEED™ PAYBACK

4 сезон

9 сезон

Бесстыжие 9 сезон

Все сериалы

все сериалы на PB.wtf

RePack

FAR CRY 5
  

Такси / Taxi (Джафар Панахи) [2015, драма, комедия, WEB-DLRip, Профессиональный многоголосый [Лицензия / iTunes] pb.wtf

Такси через торрент pb.wtf

Размер: 1.37 GB | Добавлен: 4 года 10 мес. назад | Торрент скачан:330 раз
Скачать  

02-12-2015 20:08 Такси Скачать торрент  


Такси / Taxi


ИНФОРМАЦИЯ:
Год выпуска:2015
Страна: Иран
Жанр: драма, комедия
Продолжительность: 01:21:07
Перевод: Профессиональный многоголосый [Лицензия / iTunes]
Режиссер: Джафар Панахи

В Ролях:
Джафар Панахи

Описание:
Желтое такси колесит по ярким и красочным улицам Тегерана. В такси садятся разнообразные пассажиры, каждый из которых искренне выражает свои взгляды во время беседы с водителем. А водителем является не кто иной, как сам режиссер фильма Джафар Панахи.

  • Мировая премьера:6 февраля 2015

    ТЕХ.ДАННЫЕ:
    Качество: WEB-DLRip
    Формат: AVI
    Видео: XviD, 720x400 (16:9), 1921 kbps, 24 fps, 0,278 bpp
    Аудио: AC3 / 5.1 / 48 kHz / 384 kbps / 16 bit


    General
    Complete name : D:\Торенты\T4xi.2015.P.WEB-DLRip.1400MB.avi
    Format : AVI
    Format/Info : Audio Video Interleave
    File size : 1.37 GiB
    Duration : 1h 21mn
    Overall bit rate : 2 410 Kbps
    Writing application : VirtualDubMod 1.5.10.3 | www.virtualdub-fr.org || (build 2550/release)
    Writing library : VirtualDubMod build 2550/release

    Video
    ID : 0
    Format : MPEG-4 Visual
    Format profile : Advanced Simple@L5
    Format settings, BVOP : 2
    Format settings, QPel : No
    Format settings, GMC : No warppoints
    Format settings, Matrix : Default (MPEG)
    Codec ID : XVID
    Codec ID/Hint : XviD
    Duration : 1h 21mn
    Bit rate : 1 922 Kbps
    Width : 720 pixels
    Height : 400 pixels
    Display aspect ratio : 16:9
    Frame rate : 24.000 fps
    Color space : YUV
    Chroma subsampling : 4:2:0
    Bit depth : 8 bits
    Scan type : Progressive
    Compression mode : Lossy
    Bits/(Pixel*Frame) : 0.278
    Stream size : 1.09 GiB (80%)
    Writing library : XviD 1.2.1 (UTC 2008-12-04)

    Audio
    ID : 1
    Format : AC-3
    Format/Info : Audio Coding 3
    Mode extension : CM (complete main)
    Codec ID : 2000
    Duration : 1h 21mn
    Bit rate mode : Constant
    Bit rate : 384 Kbps
    Channel(s) : 6 channels
    Channel positions : Front: L C R, Side: L R, LFE
    Sampling rate : 48.0 KHz
    Bit depth : 16 bits
    Compression mode : Lossy
    Stream size : 223 MiB (16%)
    Alignment : Split accross interleaves
    Скриншоты:

    © Оформление by .::Ворон::.
    pb.wtf



  • Скачать Такси через торрент http://pic.kartinco.top/images/6/ordi9.jpg Скачать фильм Такси через торрент бесплантно в хорошем качестве Описание: Желтое такси колесит по ярким и красочным улицам Тегерана. В такси садятся разнообразные пассажиры, каждый из которых искренне ... 9.6 10 14
    Торрент: Зарегистрирован [2015-12-02 20:08] · скачан: 330 раз
    Статус: √ проверено
    Размер: 1.37 GB
    Как cкачать? Как скачать Такси через торрент | qTorrent

    % Раздел Тема Автор DL S | L
    Сборники и Сиквелы (48-60 fps) [ 12.94 GB ] Такси: Квадрология / Taxi: Quadrilogy [1998-2007 BDRip-AVC 60fps DUB MVO DVO] от R.G. HD-Films Tiberiumsun69 Скачать
    12 | 2
    Классика зарубежного кино [ 3.85 GB ] Такси прицеп и коррида / Taxi Roulotte et Corrida [1958 BDRip 720p by msltel] 2 x MVO msltel Скачать
    1 | 0
    Классика зарубежного кино [ 9.5 GB ] Такси прицеп и коррида / Taxi Roulotte et Corrida [1958 BDRip 1080p by msltel] 2 x MVO msltel Скачать
    1 | 0
    Фильмы 2018 [DVDrip, WEB-DLRip, HDrip] (DUB, MVO) [ 1.42 GB ] Такси 5 / Taxi 5 [2018 BDRip] bober100 Скачать
    2 | 0
    Фильмы 2018 [DVDrip, WEB-DLRip, HDrip] (DUB, MVO) [ 746 MB ] Такси 5 / Taxi 5 [2018 BDRip] bober100 Скачать
    1 | 0

    28-11-2019 20:33  

    Отключить всю рекламу на сайте

    03-12-2015 06:07 Такси Скачать торрент  

    Как фильм, ребята??pb.wtf



    03-12-2015 12:15 Такси Скачать торрент  

    норм фильмpb.wtf



    03-12-2015 15:40 Такси Скачать торрент  

    Стоит посмотреть, хоть и "тривиальные мысли", но справедливо и правдиво!pb.wtf



      Дорогой пользователь! Огромная просьба, поблагодарите релизера, оцените раздачу и оставьте свои комментарий, если Вы скачали Такси через торрент бесплатно! Внесите свою лепту в развитие PiratBit!
      Комментировать посты могут только пользователи прошедшие не сложную регистрацию
      Показать сообщения:    

      Такси через торрент
      Скачать бесплатно Такси
      Такси скачать торрент
      Такси смотреть онлайн
      Cкачать фильм Такси бесплатно
      Такси скачать торрент в хорошем качестве
      Такси смотреть онлайн бесплатно в хорошем качестве


      Вы не можете начинать темы
      Вы не можете отвечать на сообщения
      Вы не можете редактировать свои сообщения
      Вы не можете удалять свои сообщения
      Вы не можете голосовать в опросах
      Вы не можете прикреплять файлы к сообщениям
      Вы можете скачивать файлы