Ссылка на приватное зеркало нашего сайта всего за 1$. Внимание количество ограничено!!!

2 сезон

iTunes

1 сезон

1

2 сезон

2 сезон

iTunes

1 сезон

RePack

30

Ultimate

ВАЖНО

ИГРА 18+

pack

RePack

MK11
pack

Забери бонус

RePack

jed

!!Акция!!

Alien_Rage

RePack

fifa19

RePack

Assassins Creed: Odyssey

RePack

NEED FOR SPEED™ PAYBACK

4 сезон

9 сезон

Бесстыжие 9 сезон

Все сериалы

все сериалы на PB.wtf

RePack

FAR CRY 5
  

Страшные сказки / Il racconto dei racconti (Маттео Гарроне / Matteo Garrone) [2015, ужасы, фэнтези, мелодрама, BDRip 720p от potroks] Dub [iTunes] pb.wtf

Страшные сказки через торрент pb.wtf

Размер: 5.13 GB | Добавлен: 4 года 11 мес. назад | Торрент скачан:394 раза
Скачать  

04-12-2015 18:02 Страшные сказки Скачать торрент  

Страшные сказки / Il racconto dei racconti
Год выпуска: 2015
Страна: Италия, Франция, Великобритания / Rai Cinema, HanWay Films, Archimede...
Жанр: ужасы, фэнтези, мелодрама
Продолжительность: 02:13:45
Перевод: Дубляж [iTunes]
Субтитры: русские, английские
Навигация по главам: есть
Режиссер: Маттео Гарроне / Matteo Garrone
В ролях:

Сальма Хайек (Queen of Longtrellis), Венсан Кассель (King of Strongcliff), Тоби Джонс (King of Highhills), Джон Си Райли (King of Longtrellis), Ширли Хендерсон (Imma), Хейли Кармайкл (Dora), Бебе Кейв (Violet), Стэйси Мартин (Young Dora), Кристиан Лис (Elias), Джона Лис (Jonah), Лаура Пиццирани (Jonah's Mother), Франко Пистони (Necromancer)
Описание: Маги и волшебники, короли и королевы, красавицы-принцессы и страшилы-великаны населяют эту потрясающую готическую фантазию. Сластолюбивый Король Одинокого Утеса берет в жены прелестную деву, а она превращается в уродливую старуху. Отважный Король Долины Туманов отправляется на бой с драконом, поскольку волшебник предсказал, что королева понесет ребенка, если съест сердце дракона. Ну, а Король Диких Гор с любовью выращивает гигантскую блоху, а родную дочь без тени сожаления отдает в жены горному огру. За стенами величественных замков строятся коварные козни, даются безрассудные обеты, там страстно любят и жестоко убивают...

Качество: BDRip 720p
Формат: MKV
Видео кодек: AVC
Аудио кодек: AC3
Видео: 1280x544 (2.35:1), 4465 kbps, 24 fps, 0.267 bit/pixel
Аудио#1: AC3 / 5.1 / 48 kHz / 384 kbps / 16 bit | RUS
Аудио#2: AC3 / 5.1 / 48 kHz / 640 kbps / 16 bit | ENG

Релиз группы:
Автор рипа: potroks

Код:

General
Unique ID                   : 207486918593175089613888271796259802392 (0x9C1886E6C452C1FF8F6368EC3F244D18)
Complete name               : Strashnyie.Skazki.2015.DUAL.BDRip.720p.-HELLYWOOD.mkv
Format                      : Matroska
Format version              : Version 4 / Version 2
File size                   : 5.13 GiB
Duration                    : 2h 13mn
Overall bit rate            : 5 492 Kbps
Movie name                  : Il racconto dei racconti (2015) - HELLYWOOD
Encoded date                : UTC 2010-02-22 21:41:31
Writing application         : mkvmerge v5.8.0 ('No Sleep / Pillow') built on Sep 30 2012 10:57:14
Writing library             : libebml v1.3.0 + libmatroska v1.4.0

Video
ID                          : 1
Format                      : AVC
Format/Info                 : Advanced Video Codec
Format profile              : High@L4.1
Format settings, CABAC      : Yes
Format settings, ReFrames   : 5 frames
Codec ID                    : V_MPEG4/ISO/AVC
Duration                    : 2h 13mn
Bit rate                    : 4 465 Kbps
Width                       : 1 280 pixels
Height                      : 544 pixels
Display aspect ratio        : 2.35:1
Frame rate mode             : Constant
Frame rate                  : 24.000 fps
Color space                 : YUV
Chroma subsampling          : 4:2:0
Bit depth                   : 8 bits
Scan type                   : Progressive
Bits/(Pixel*Frame)          : 0.267
Stream size                 : 4.07 GiB (79%)
Title                       : potroks
Writing library             : x264 core 148 r2597M e86f3a1
Encoding settings           : cabac=1 / ref=6 / deblock=1:-3:-3 / analyse=0x3:0x133 / me=umh / subme=11 / psy=1 / psy_rd=1.10:0.10 / mixed_ref=1 / me_range=32 / chroma_me=1 / trellis=2 / 8x8dct=1 / cqm=0 / deadzone=21,11 / fast_pskip=0 / chroma_qp_offset=-3 / threads=10 / lookahead_threads=1 / sliced_threads=0 / nr=0 / decimate=1 / interlaced=0 / bluray_compat=1 / constrained_intra=0 / bframes=3 / b_pyramid=1 / b_adapt=2 / b_bias=0 / direct=3 / weightb=1 / open_gop=0 / weightp=1 / keyint=250 / keyint_min=1 / scenecut=40 / intra_refresh=0 / rc=2pass / mbtree=0 / bitrate=4465 / ratetol=1.0 / qcomp=0.70 / qpmin=0 / qpmax=69 / qpstep=4 / cplxblur=20.0 / qblur=0.5 / ip_ratio=1.40 / pb_ratio=1.30 / aq=1:0.70
Language                    : English
Default                     : Yes
Forced                      : No
Color range                 : Limited
Color primaries             : BT.709
Transfer characteristics    : BT.709
Matrix coefficients         : BT.709

Audio #1
ID                          : 2
Format                      : AC-3
Format/Info                 : Audio Coding 3
Mode extension              : CM (complete main)
Format settings, Endianness : Big
Codec ID                    : A_AC3
Duration                    : 2h 13mn
Bit rate mode               : Constant
Bit rate                    : 384 Kbps
Channel(s)                  : 6 channels
Channel positions           : Front: L C R, Side: L R, LFE
Sampling rate               : 48.0 KHz
Compression mode            : Lossy
Stream size                 : 367 MiB (7%)
Title                       : Dub | DD 5.1 @ 384 kbps - iTunes
Language                    : Russian
Default                     : Yes
Forced                      : No

Audio #2
ID                          : 3
Format                      : AC-3
Format/Info                 : Audio Coding 3
Mode extension              : CM (complete main)
Format settings, Endianness : Big
Codec ID                    : A_AC3
Duration                    : 2h 13mn
Bit rate mode               : Constant
Bit rate                    : 640 Kbps
Channel(s)                  : 6 channels
Channel positions           : Front: L C R, Side: L R, LFE
Sampling rate               : 48.0 KHz
Compression mode            : Lossy
Delay relative to video     : 27ms
Stream size                 : 612 MiB (12%)
Title                       : Original | DD 5.1 @ 640 kbps
Language                    : English
Default                     : No
Forced                      : No

Text #1
ID                          : 4
Format                      : UTF-8
Codec ID                    : S_TEXT/UTF8
Codec ID/Info               : UTF-8 Plain Text
Language                    : Russian
Default                     : No
Forced                      : No

Text #2
ID                          : 5
Format                      : UTF-8
Codec ID                    : S_TEXT/UTF8
Codec ID/Info               : UTF-8 Plain Text
Language                    : English
Default                     : No
Forced                      : No

Menu
00:00:00.000                : en:(01)00:00:00:000
00:08:36.790                : en:(02)00:08:36:790
00:19:37.750                : en:(03)00:19:37:750
00:26:20.250                : en:(04)00:26:20:250
00:36:05.000                : en:(05)00:36:05:000
00:44:24.083                : en:(06)00:44:24:083
00:56:14.458                : en:(07)00:56:14:458
01:09:24.582                : en:(08)01:09:24:582
01:24:24.625                : en:(09)01:24:24:625
01:33:59.332                : en:(10)01:33:59:332
01:47:49.333                : en:(11)01:47:49:333
02:01:58.916                : en:(12)02:01:58:916

pb.wtf



Скачать Страшные сказки через торрент http://i76.fastpic.ru/big/2015/1116/68/0a227bb32ea1d29c10f79fef56bf2f68.png Скачать фильм Страшные сказки через торрент бесплантно в хорошем качестве Описание: Маги и волшебники, короли и королевы, красавицы-принцессы и страшилы-великаны населяют эту потрясающую готическую фантазию. ... 9 10 8
Info! Золотая раздача, скачанное не засчитывается.
Торрент: Зарегистрирован [2015-12-04 18:02] · скачан: 394 раз
Статус: √ проверено
Размер: 5.13 GB
Как cкачать? Как скачать Страшные сказки через торрент | qTorrent

% Раздел Тема Автор DL S | L
Фильмы (Blu-ray, BD-Remux, HDDVD) [ 21.89 GB ] Страшные сказки / Il racconto dei racconti [2015 Blu-Ray RUS] Russian Mafia Скачать
2 | 0
Фильмы 2015 [DVDrip, WEB-DLRip, HDrip] [ 2.19 GB ] Страшные сказки / Il racconto dei racconti - Tale of Tales [2015 HDRip "BD RUS"] coc900 Скачать
1 | 0
Фильмы 2015 [DVDrip, WEB-DLRip, HDrip] [ 1.46 GB ] Страшные сказки / Il racconto dei racconti [2015 BDRip] Dub Twi7ter Скачать
2 | 0
Фильмы 2015 [DVDrip, WEB-DLRip, HDrip] [ 1.46 GB ] Страшные сказки / Il racconto dei racconti [2015 BDRip-AVC] Dub potroks Скачать
1 | 0
Фильмы [HD 720p, 1080p] (Хороший звук DUB, MVO) [ 6.82 GB ] Страшные сказки / Il racconto dei racconti [2015 BDRip 720p от _denis_100 / NNNB] DUB MVO AVO _denis_100 Скачать
1 | 0
Фильмы 2015 [DVDrip, WEB-DLRip, HDrip] [ 2.05 GB ] Страшные сказки / Il racconto dei racconti [2015 HDRip MihailHD Скачать
1 | 0
Фильмы 2015 [DVDrip, WEB-DLRip, HDrip] [ 2.12 GB ] Страшные сказки / Il racconto dei racconti [2015 BDRip] Dub Twi7ter Скачать
1 | 0

28-11-2019 20:33  

Отключить всю рекламу на сайте

04-12-2015 18:11 Страшные сказки Скачать торрент  

Спасибо!:-)pb.wtf



09-01-2016 22:49 Страшные сказки Скачать торрент  

Я такого отборного говна давно не смотрел.... извините меня... Это ужас.. Зачем такое снимать...pb.wtf



    Дорогой пользователь! Огромная просьба, поблагодарите релизера, оцените раздачу и оставьте свои комментарий, если Вы скачали Страшные сказки через торрент бесплатно! Внесите свою лепту в развитие PiratBit!
    Комментировать посты могут только пользователи прошедшие не сложную регистрацию
    Показать сообщения:    

    Страшные сказки через торрент
    Скачать бесплатно Страшные сказки
    Страшные сказки скачать торрент
    Страшные сказки смотреть онлайн
    Cкачать фильм Страшные сказки бесплатно
    Страшные сказки скачать торрент в хорошем качестве
    Страшные сказки смотреть онлайн бесплатно в хорошем качестве


    Вы не можете начинать темы
    Вы не можете отвечать на сообщения
    Вы не можете редактировать свои сообщения
    Вы не можете удалять свои сообщения
    Вы не можете голосовать в опросах
    Вы не можете прикреплять файлы к сообщениям
    Вы можете скачивать файлы