Ссылка на приватное зеркало всего за 1$. Внимание количество ограничено!!!

iTunes

iTunes

iTunes

1

iTunes

iTunes

iTunes

iTunes

iTunes

30
pack

$ от Little Big

ВАЖНО

!!Акция!!

Alien_RageХит недели

RePack

Resident Evil 21

ИГРА 18+

pack

RePack

jed

!!Акция!!

Alien_Rage

RePack

fifa19

RePack

Assassins Creed: Odyssey

RePack

NEED FOR SPEED™ PAYBACK

4 сезон

9 сезон

Бесстыжие 9 сезон

Все сериалы

все сериалы на PB.wtf

RePack

FAR CRY 5
  

Кодекс пирата: приключения Микки Мэтсона / Pirate's Code: The Adventures of Mickey Matson (Харольд Кронк) [2014, семейный, DVDRip, Любительский (двухголосый)[Саншайн Студио] pb.wtf

Кодекс пирата: приключения Микки Мэтсона через торрент pb.wtf

Размер: 1.37 GB | Добавлен: 4 года 5 мес. назад | Торрент скачан:179 раз
Скачать  

06-12-2015 19:10 Кодекс пирата: приключения Микки Мэтсона Скачать торрент  


Кодекс пирата: приключения Микки Мэтсона / Pirate's Code: The Adventures of Mickey Matson


ИНФОРМАЦИЯ:
Год выпуска:2014
Страна: США
Жанр: семейный
Продолжительность: 01:31:22
Перевод: Любительский (двухголосый)[Саншайн Студио]
Режиссер: Харольд Кронк

В Ролях:


Тиа Каррере (Kelly), Кристофер Ллойд (Grandpa Jack), Фрэнк Коллисон (Admiral Ironsides), Кентон Дюти (Max), Саванна Джейд (Vicki), Дерек Брэндон (Mickey Matson), Пэтрика Дарбо (Grams), Тим Холмс (Brass Knuckles), Фрэнк Дранк (Jeremiah), Франческа Дероса (Sully), Рик Сарабиа (Martin Sekulichick), Ральф Листер (Seamus)

Описание:
Разобравшись со злобными Конфидератами, Микки Мэтсон вновь возвращается к обычной жизни и ему кажется, что Родина забыла про него, но это не так - спустя год ему предлагают вновь окунуться в головокружительные приключения, став полноправным членом Тайного Ордена Патриотов.

  • Мировая премьера:16 октября 2014

    ТЕХ.ДАННЫЕ:
    Качество: DVDRip
    Формат: AVI
    Видео: XviD, 720x304 (2.35:1), 1855 kbps, 23,976 fps, 0,354 bpp
    Аудио: AC3 / 2.0 / 48 kHz / 192 kbps / 16 bit


    General
    Complete name : D:\Торенты\K0deKs.5iRaTa.2015.L2.DVDRip.1400MB.avi
    Format : AVI
    Format/Info : Audio Video Interleave
    File size : 1.37 GiB
    Duration : 1h 31mn
    Overall bit rate : 2 141 Kbps
    Writing application : VirtualDubMod 1.5.10.3 | www.virtualdub-fr.org || (build 2550/release)
    Writing library : VirtualDubMod build 2550/release

    Video
    ID : 0
    Format : MPEG-4 Visual
    Format profile : Advanced Simple@L5
    Format settings, BVOP : 2
    Format settings, QPel : No
    Format settings, GMC : No warppoints
    Format settings, Matrix : Default (MPEG)
    Codec ID : XVID
    Codec ID/Hint : XviD
    Duration : 1h 31mn
    Bit rate : 1 856 Kbps
    Width : 720 pixels
    Height : 304 pixels
    Display aspect ratio : 2.35:1
    Frame rate : 23.976 fps
    Color space : YUV
    Chroma subsampling : 4:2:0
    Bit depth : 8 bits
    Scan type : Progressive
    Compression mode : Lossy
    Bits/(Pixel*Frame) : 0.354
    Stream size : 1.18 GiB (87%)
    Writing library : XviD 1.2.1 (UTC 2008-12-04)

    Audio
    ID : 1
    Format : AC-3
    Format/Info : Audio Coding 3
    Mode extension : CM (complete main)
    Codec ID : 2000
    Duration : 1h 31mn
    Bit rate mode : Constant
    Bit rate : 192 Kbps
    Channel(s) : 2 channels
    Channel positions : Front: L R
    Sampling rate : 48.0 KHz
    Bit depth : 16 bits
    Compression mode : Lossy
    Stream size : 125 MiB (9%)
    Alignment : Split accross interleaves
    Скриншоты:

    © Оформление by .::Ворон::.
    pb.wtf



  • Скачать Кодекс пирата: приключения Микки Мэтсона через торрент http://pic.kartinco.top/images/6/ordi9.jpg Скачать фильм Кодекс пирата: приключения Микки Мэтсона через торрент бесплантно в хорошем качестве Описание: Разобравшись со злобными Конфидератами, Микки Мэтсон вновь возвращается к обычной жизни и ему кажется, что Родина забыла про ... 7.4 10 7
    Торрент: Зарегистрирован [2015-12-06 19:10] · скачан: 179 раз
    Статус: T временная
    Размер: 1.37 GB
    Как cкачать? Как скачать Кодекс пирата: приключения Микки Мэтсона через торрент | qTorrent

    28-11-2019 20:33  

    Отключить всю рекламу на сайте

      Дорогой пользователь! Огромная просьба, поблагодарите релизера, оцените раздачу и оставьте свои комментарий, если Вы скачали Кодекс пирата: приключения Микки Мэтсона через торрент бесплатно! Внесите свою лепту в развитие PiratBit!
      Комментировать посты могут только пользователи прошедшие не сложную регистрацию
      Показать сообщения:    

      Кодекс пирата: приключения Микки Мэтсона через торрент
      Скачать бесплатно Кодекс пирата: приключения Микки Мэтсона
      Кодекс пирата: приключения Микки Мэтсона скачать торрент
      Кодекс пирата: приключения Микки Мэтсона смотреть онлайн
      Cкачать фильм Кодекс пирата: приключения Микки Мэтсона бесплатно
      Кодекс пирата: приключения Микки Мэтсона скачать торрент в хорошем качестве
      Кодекс пирата: приключения Микки Мэтсона смотреть онлайн бесплатно в хорошем качестве


      Вы не можете начинать темы
      Вы не можете отвечать на сообщения
      Вы не можете редактировать свои сообщения
      Вы не можете удалять свои сообщения
      Вы не можете голосовать в опросах
      Вы не можете прикреплять файлы к сообщениям
      Вы можете скачивать файлы