новый адрес
Ссылка на приватное зеркало всего за 1$. Внимание количество ограничено!!!

iTunes

1+1

iTunes

мы

WEB-DL

1

iTunes

Чернобыль

iTunes

Ральф против интернета

Лицензия

ПШазам

Лицензия

Оно 2

Лицензия

30
pack

Вам бонус

ВАЖНО

!!Акция!!

Alien_RageХит недели

RePack

Resident Evil 21

ИГРА 18+

pack

RePack

jed

!!Акция!!

Alien_Rage

RePack

fifa19

RePack

Assassins Creed: Odyssey

RePack

NEED FOR SPEED™ PAYBACK

3 сезон

9 сезон

Бесстыжие 9 сезон

Все сериалы

все сериалы на PB.wtf

RePack

FAR CRY 5
Ребята, катастрофически не хватает 1900р. для оплаты серверов за Октябрь (всвязи с блокировками трафик упал в 3 раза), 1-2р., выручайте.
  

Ревизор (Владимир Петров) [1952, СССР, комедия, экранизация, SATRip от AVP Studio] pb.wtf

Ревизор через торрент pb.wtf

Размер: 1.46 GB | Добавлен: 3 года 11 мес. назад | Торрент скачан:38 раз
Скачать  

15-12-2015 11:02 Ревизор Скачать торрент  

Ревизор
Страна: СССР
Производство: Мосфильм

Жанр: комедия, экранизация
Год выпуска: 1952
Продолжительность: 02:04:04

Перевод: Не требуется
Cубтитры: нет
Оригинальная аудиодорожка: русский

Режиссер: Владимир Петров

В ролях:
Юрий Толубеев, Анастасия Георгиевская, Тамара Носова, Павел Павленко, Сергей Блинников, Михаил Яншин, Эраст Гарин, Александр Полинский, Василий Корнуков, Игорь Горбачёв, Алексей Грибов, Александр Гузеев, Евгений Агуров, Николай Рыбников (II), Николай Чистяков, Сергей Калинин, Иван Рыжов, Валентин Онищенко, Александр Щагин, Н. Тимяков, Анастасия Зуева, Елена Понсова, Павел Иванов (IV), Анатолий Кубацкий, Анна Заржицкая...
Полный список актёров

Описание:
В сытом довольстве живет Городничий Сквозник-Дмухановский, привыкший цепко хватать все, что "плывет в руки". Среди чиновников города процветает казнокрадство и взяточничество. Неожиданная весть о предстоящем приезде ревизора мгновенно нарушает мирное течение жизни, ...а в местной гостинице уже две недели проживает "инкогнито" некий петербургский чиновник, который ведет себя странно и ни за что не платит... Пытаясь, замести следы преступлений, чиновники во главе с Городничим организуют достойную встречу мнимому ревизору. Принятый за ревизора "елистратишка" Хлестаков быстро осваивается со своим новым положением, сватается к дочке Городничего и одновременно начинает волочиться за его женой. Осчастливленный благосклонностью "ревизора", Сквозник-Дмухановский, вершит расправу, над поднявшими было голову купцами и мещанами. Между тем Хлестаков, прихватив взятые у чиновников деньги и "подарки" купцов, благополучно скрывается из города. Письмо Хлестакова в Петербург открывает всем истину. Сообщение о приезде настоящего ревизора окончательно сражает попавшего впросак городничего.

Источник: DVB
Качество видео: SATRip
Формат видео: AVI

Видео: 672x496 (4:3), 25 fps, XviD ~ 1480 kbps avg, 0.178 bit/pixel
Аудио: 48 kHz, Dolby Digital AC3 2.0, 192 kbps

Раздача от:
Общее
Полное имя : Revizor.1952.SATRip_[New-team]_by_AVP_Studio.avi
Формат : AVI
Формат/Информация : Audio Video Interleave
Размер файла : 1,46 Гбайт
Продолжительность : 2 ч. 4 м.
Общий поток : 1681 Кбит/сек
Программа кодирования : VirtualDubMod 1.5.10.3 | www.virtualdub-fr.org || (build 2550/release)
Библиотека кодирования : VirtualDubMod build 2550/release

Видео
Идентификатор : 0
Формат : MPEG-4 Visual
Профиль формата : Advanced Simple@L5
Параметр BVOP формата : 1
Параметр QPel формата : Нет
Параметр GMC формата : Без точки перехода
Параметр матрицы формата : Выборочная
Идентификатор кодека : XVID
Идентификатор кодека/Подсказка : XviD
Продолжительность : 2 ч. 4 м.
Битрейт : 1480 Кбит/сек
Ширина : 672 пикселя
Высота : 496 пикселей
Соотношение сторон : 4:3
Частота кадров : 25,000 кадров/сек
Цветовое пространство : YUV
Субдискретизация насыщенности : 4:2:0
Битовая глубина : 8 бит
Тип развёртки : Прогрессивная
Метод сжатия : С потерями
Бит/(Пиксели*Кадры) : 0.178
Размер потока : 1,28 Гбайт (88%)
Библиотека кодирования : XviD 1.2.1 (UTC 2008-12-04)

Аудио
Идентификатор : 1
Формат : AC-3
Формат/Информация : Audio Coding 3
Расширение режима : CM (complete main)
Параметр Endianness формата : Big
Идентификатор кодека : 2000
Продолжительность : 2 ч. 4 м.
Вид битрейта : Постоянный
Битрейт : 192 Кбит/сек
Каналы : 2 канала
Расположение каналов : Front: L R
Частота : 48,0 КГц
Метод сжатия : С потерями
Размер потока : 170 Мбайт (11%)
Выравнивание : Разделение по промежуткам
Продолжительность промежутка : 40 мс. (1,00 видеокадр)
Время предзагрузки промежутка : 500 мс
pb.wtf



Скачать Ревизор через торрент http://s017.radikal.ru/i419/1512/d5/bf55b29d8c6f.png Скачать фильм Ревизор через торрент бесплантно в хорошем качестве Описание:В сытом довольстве живет Городничий Сквозник-Дмухановский, привыкший цепко хватать все, что "плывет в руки". Среди чиновников ... 9.5 10 2
Торрент: Зарегистрирован [2015-12-15 11:02] · скачан: 38 раз
Статус: √ проверено
Размер: 1.46 GB
Как cкачать? Как скачать Ревизор через торрент | qTorrent

% Раздел Тема Автор DL S | L
Кино СССР [ 1.46 GB ] Ревизор [1952 СССР экранизация SATRip-AVC от AVP Studio] AVP Studio Скачать
3 | 0
Кино СССР [ 1.09 GB ] Ревизор [1952 СССР экранизация SATRip от AVP Studio] AVP Studio Скачать
1 | 0
Развлекательные телепередачи и шоу, приколы и юмор [ 25.98 GB ] Ревизор / Ревізор [2015 Реалити-Шоу SATRip Оригинальный] Бумер Скачать
1 | 0
Развлекательные телепередачи и шоу, приколы и юмор [ 36.13 GB ] Ревизор Сезон: 1 / Ревізор [2011-2012 Реалити-Шоу SATRip Украинский] Бумер Скачать
1 | 0
Развлекательные телепередачи и шоу, приколы и юмор [ 20.81 GB ] Ревизор / Ревізор Выпуски 1-28 [2011-2012 Реалити-шоу SATRip] DEVI Скачать
1 | 0
Секс с подростками [ 140 MB ] Ревизоры отверстий [2008 Oral Sex Classic Sex Orgy Teen DVDRip] peek-in Скачать
1 | 0

28-11-2019 20:33  

Отключить всю рекламу на сайте

    Дорогой пользователь! Огромная просьба, поблагодарите релизера, оцените раздачу и оставьте свои комментарий, если Вы скачали Ревизор через торрент бесплатно! Внесите свою лепту в развитие PiratBit!
    Комментировать посты могут только пользователи прошедшие не сложную регистрацию
    Показать сообщения:    

    Ревизор через торрент
    Скачать бесплатно Ревизор
    Ревизор скачать торрент
    Ревизор смотреть онлайн
    Cкачать фильм Ревизор бесплатно
    Ревизор скачать торрент в хорошем качестве
    Ревизор смотреть онлайн бесплатно в хорошем качестве


    Вы не можете начинать темы
    Вы не можете отвечать на сообщения
    Вы не можете редактировать свои сообщения
    Вы не можете удалять свои сообщения
    Вы не можете голосовать в опросах
    Вы не можете прикреплять файлы к сообщениям
    Вы можете скачивать файлы