Ссылка на приватное зеркало нашего сайта всего за 1$. Внимание количество ограничено!!!

2 сезон

iTunes

1 сезон

1

iTunes

iTunes

iTunes

1 сезон

RePack

30

ИГРА 18+

pack

ВАЖНО

!!Акция!!

Alien_RageХит недели

RePack

MK11
pack

Забери бонус

RePack

jed

!!Акция!!

Alien_Rage

RePack

fifa19

RePack

Assassins Creed: Odyssey

RePack

NEED FOR SPEED™ PAYBACK

4 сезон

9 сезон

Бесстыжие 9 сезон

Все сериалы

все сериалы на PB.wtf

RePack

FAR CRY 5
  

Мой друг Дед Мороз / Le père Noël (Александр Коффре) [2014 г., Комедия, HDRip] MVO [iTunes] pb.wtf

Мой друг Дед Мороз через торрент pb.wtf

Размер: 1.36 GB | Добавлен: 4 года 9 мес. назад | Торрент скачан:229 раз
Скачать  

24-12-2015 15:08 Мой друг Дед Мороз Скачать торрент  

Мой друг Дед Мороз / Le père Noël
Год выпуска » 2015
Страна » Франция, Бельгия
Жанр » Комедия
Продолжительность » 01:18:11
Перевод » Профессиональный (многоголосый, закадровый) [iTunes]
Субтитры » Отсутствуют

В ролях
» Тахар Рахим, Виктор Кабаль, Аннелиз Эм, Микаэль Абитбуль, Филипп Реббо, Амели Гленн, Жан Франсуа Кэйри, Джибрил Гуйе, Сатья Дюсаги

Режиссёр
» Александр Коффре
ОПИСАНИЕ:
» В ночь на Рождество 6-летний Антуан загадал только одно желание – покататься в санях Санта-Клауса между звёзд, рассыпанных по небу. И тут, словно по мановению волшебной палочки, на балконе появляется Санта. Антуан был слишком удивлён, чтобы признать в нём бородатого грабителя, переодетого в новогодний костюм, который отправился по парижским квартирам в поисках богатств.
• Качество » HDRip
• Формат » AVI
• Видео кодек » XviD
• Аудио кодек » AC3
• Видео » 720x304, 25.000 fps, 2098 Кбит/с
• Аудио » • Русский (AC3,384 kb/s, 6 ch, 48.0 KHz )


Общее
Полное имя : F:\M0y.DruG.DeD.m0r0z.2014.P.HDRip.1400MB.avi
Формат : AVI
Формат/Информация : Audio Video Interleave
Размер файла : 1,36 Гбайт
Продолжительность : 1 ч. 18 м.
Общий поток : 2492 Кбит/сек
Программа кодирования : VirtualDubMod 1.5.10.3 | www.virtualdub-fr.org || (build 2550/release)
Библиотека кодирования : VirtualDubMod build 2550/release

Видео
Идентификатор : 0
Формат : MPEG-4 Visual
Профиль формата : Advanced Simple@L5
Параметр BVOP формата : 2
Параметр QPel формата : Нет
Параметр GMC формата : Без точки перехода
Параметр матрицы формата : Default (MPEG)
Идентификатор кодека : XVID
Идентификатор кодека/Подсказка : XviD
Продолжительность : 1 ч. 18 м.
Битрейт : 2098 Кбит/сек
Ширина : 720 пикселей
Высота : 304 пикселя
Соотношение сторон : 2,35:1
Частота кадров : 25,000 кадров/сек
Цветовое пространство : YUV
Субдискретизация насыщенности : 4:2:0
Битовая глубина : 8 бит
Тип развёртки : Прогрессивная
Метод сжатия : С потерями
Бит/(Пиксели*Кадры) : 0.383
Размер потока : 1,15 Гбайт (84%)
Библиотека кодирования : XviD 1.2.1 (UTC 2008-12-04)

Аудио
Идентификатор : 1
Формат : AC-3
Формат/Информация : Audio Coding 3
Расширение режима : CM (complete main)
Параметр Endianness формата : Big
Идентификатор кодека : 2000
Продолжительность : 1 ч. 18 м.
Вид битрейта : Постоянный
Битрейт : 384 Кбит/сек
Каналы : 6 каналов
Расположение каналов : Front: L C R, Side: L R, LFE
Частота : 48,0 КГц
Битовая глубина : 16 бит
Метод сжатия : С потерями
Размер потока : 215 Мбайт (15%)
Выравнивание : Разделение по промежуткам
Продолжительность промежутка : 40 мс. (1,00 видеокадр)
Время предзагрузки промежутка : 500 мс.
скриншот   скриншот   скриншот  
pb.wtf



Скачать Мой друг Дед Мороз через торрент http://i74.fastpic.ru/big/2015/1218/b5/c39d072d168dbcde95d1a17f670689b5.gif Скачать фильм Мой друг Дед Мороз через торрент бесплантно в хорошем качестве ОПИСАНИЕ: » В ночь на Рождество 6-летний Антуан загадал только одно желание – покататься в санях Санта-Клауса между звёзд, рассыпанных по ... 9.3 10 15
Info! Золотая раздача, скачанное не засчитывается.
Торрент: Зарегистрирован [2015-12-24 15:08] · скачан: 229 раз
Статус: √ проверено
Размер: 1.36 GB
Как cкачать? Как скачать Мой друг Дед Мороз через торрент | qTorrent

% Раздел Тема Автор DL S | L
R.G. Resident & PiratVoice - Фильмы, Видео [ 1.44 GB ] Мой друг Дед Мороз / Le père Noël [2014 HDRip-AVC многоголосый R.G.Resident schultz Скачать
1 | 0
Фильмы 2014 [DVDrip, WEB-DLRip, HDrip] [ 709 MB ] Мой друг Дед Мороз / Le père Noël [2014 HDRip многоголосый закадровый ""] coc900 Скачать
1 | 0
T Фильмы [HD 720p, 1080p] (Хороший звук DUB, MVO) [ 5.66 GB ] Мой друг Дед Мороз / Le père Noël [2014 BDRip 1080p многоголосый schultz Скачать
1 | 0

28-11-2019 20:33  

Отключить всю рекламу на сайте

    Дорогой пользователь! Огромная просьба, поблагодарите релизера, оцените раздачу и оставьте свои комментарий, если Вы скачали Мой друг Дед Мороз через торрент бесплатно! Внесите свою лепту в развитие PiratBit!
    Комментировать посты могут только пользователи прошедшие не сложную регистрацию
    Показать сообщения:    

    Мой друг Дед Мороз через торрент
    Скачать бесплатно Мой друг Дед Мороз
    Мой друг Дед Мороз скачать торрент
    Мой друг Дед Мороз смотреть онлайн
    Cкачать фильм Мой друг Дед Мороз бесплатно
    Мой друг Дед Мороз скачать торрент в хорошем качестве
    Мой друг Дед Мороз смотреть онлайн бесплатно в хорошем качестве


    Вы не можете начинать темы
    Вы не можете отвечать на сообщения
    Вы не можете редактировать свои сообщения
    Вы не можете удалять свои сообщения
    Вы не можете голосовать в опросах
    Вы не можете прикреплять файлы к сообщениям
    Вы можете скачивать файлы