Всегда рабочее зеркало без VPN и Proxy просто перед .vidak.icu напиши любое слово или цифру, Пример http://hc8d.vidak.icu

MVO

MVO

1 сезон

1

1 сезон

iTunes

1 сезон

13

1 сезон

Deluxe

pack

Рекомендуем

Repack

30

ВАЖНО

RePack

MK11

RePack

jed

RePack

fifa19

RePack

RDR2

RePack

NEED FOR SPEED™ PAYBACK

Кинопоиск HD

6 сезон

 Острые козырьки 6 сезон

Все сериалы

все сериалы на PB.wtf

RePack

FAR CRY 5
  
Magnet ссылка

Наруто: Последний фильм / The Last: Naruto the Movie (Цунэо Кобаяси ) [2014, аниме, мультфильм, боевик, WEB-DLRip, Дубляж] iTunes pb.wtf

Наруто: Последний фильм через торрент pb.wtf

Размер: 1.46 GB | Добавлен: 7 лет 1 мес. назад | Торрент скачан:453 раза
Смотреть онлайн Наруто: Последний фильм | Скачать    Ребята, помогите собрать деньги на оплату серверов!!!

03-07-2015 04:12 Наруто: Последний фильм Скачать торрент  


Наруто: Последний фильм / The Last: Naruto the Movie


ИНФОРМАЦИЯ:
Год выпуска: 2014
Страна: Япония
Жанр: аниме, мультфильм, боевик, комедия, приключения
Продолжительность: 01:51:54
Перевод: Дубляж - [Лицензия / iTunes]
Режиссер: Цунэо Кобаяси

В Ролях:


Дзюнко Такэути (Naruto Uzumaki, озвучка), Нана Мидзуки (Hinata Hyuuga, озвучка), Дзюн Фукуяма (Toneri Ôtsutsuki, озвучка), Тиэ Накамура (Sakura Haruno, озвучка), Сётаро Морикубо (Shikamaru Nara, озвучка), Сатоси Хино (Sai, озвучка), Акира Исида (Gaara, The Fifth Kazekage, озвучка), Хидеаки Тезука (A, The Fourth Raikage, озвучка), Юрика Хино (Mei Teriumî, The Fifth Mizukage, озвучка), Томоми Нисимура (Ônoki, The Third Tsuchikage, озвучка), Хисао Егава (Killer B, озвучка), Масако Кацуки (Tsunade, озвучка)

Описание:
Маленькая Ханаби похищена инопланетным злодеем, который вдобавок хочет уничтожить Землю. Наруто просто обязан спасти младшую сестру Хинаты - девушки, в которую он влюблён. Но сможет ли легендарный ниндзя победить самого мощного врага, если перед битвой он потеряет свои суперспособности?

  • Мировая премьера:6 декабря 2014

    ТЕХ.ДАННЫЕ:
    Качество: WEB-DLRip
    Формат: AVI
    Видео кодек: XviD
    Аудио кодек: AC3
    Видео: XviD, 720x384 (1.875), 1401 kbps, 24 fps, 0,211 bpp
    Аудио: AC3 / 5.1 / 48 kHz / 384 kbps / 16 bit



    Код:

    General
    Complete name                            : D:\Торенты\Naruto.the.Movie.2014.D.WEB-DLRip.1.46GB.avi
    Format                                   : AVI
    Format/Info                              : Audio Video Interleave
    File size                                : 1.46 GiB
    Duration                                 : 1h 51mn
    Overall bit rate                         : 1 868 Kbps
    Writing application                      : VirtualDubMod 1.5.10.3 | www.virtualdub-fr.org || (build 2550/release)
    Writing library                          : VirtualDubMod build 2550/release

    Video
    ID                                       : 0
    Format                                   : MPEG-4 Visual
    Format profile                           : Advanced [email protected]
    Format settings, BVOP                    : 2
    Format settings, QPel                    : No
    Format settings, GMC                     : No warppoints
    Format settings, Matrix                  : Default (MPEG)
    Codec ID                                 : XVID
    Codec ID/Hint                            : XviD
    Duration                                 : 1h 51mn
    Bit rate                                 : 1 401 Kbps
    Width                                    : 720 pixels
    Height                                   : 384 pixels
    Display aspect ratio                     : 1.875
    Frame rate                               : 24.000 fps
    Color space                              : YUV
    Chroma subsampling                       : 4:2:0
    Bit depth                                : 8 bits
    Scan type                                : Progressive
    Compression mode                         : Lossy
    Bits/(Pixel*Frame)                       : 0.211
    Stream size                              : 1.10 GiB (75%)
    Writing library                          : XviD 1.2.1 (UTC 2008-12-04)

    Audio
    ID                                       : 1
    Format                                   : AC-3
    Format/Info                              : Audio Coding 3
    Mode extension                           : CM (complete main)
    Codec ID                                 : 2000
    Duration                                 : 1h 51mn
    Bit rate mode                            : Constant
    Bit rate                                 : 384 Kbps
    Channel(s)                               : 6 channels
    Channel positions                        : Front: L C R, Side: L R, LFE
    Sampling rate                            : 48.0 KHz
    Bit depth                                : 16 bits
    Compression mode                         : Lossy
    Stream size                              : 307 MiB (21%)
    Alignment                                : Split accross interleaves

    Скриншоты:






    © Оформление by Ворон
    pb.wtf



  • Скачать Наруто: Последний фильм через торрент https://pic1.kartinco.top/images/61/ordi9.jpg Скачать, смотреть онлайн Наруто: Последний фильм бесплантно в хорошем качестве Описание: Маленькая Ханаби похищена инопланетным злодеем, который вдобавок хочет уничтожить Землю. Наруто просто обязан спасти младшую ... 8.4 10 13
    Info! Золотая раздача, скачанное не засчитывается.
    Торрент: Зарегистрирован [2015-07-03 04:12] · скачан: 453 раз
    Статус: √ проверено
    Размер: 1.46 GB
    Как cкачать? Как скачать Наруто: Последний фильм через торрент | UTorrent

    % Раздел Тема Автор DL S | L
    Аниме [HD 720p, 1080p] [ 4.18 GB ] Наруто: Последний фильм / The Last: Naruto the Movie [2014 аниме мультфильм WEB-DL 1080p ] Ворон Скачать
    1 | 0

    28-11-2019 20:33  

    Отключить вcю реклaмy на сайте

    03-07-2015 08:00 Наруто: Последний фильм Скачать торрент  

    чет они совсем обкурились.так все закосячить. сюжет убили совсемpb.wtf



    27-12-2015 22:15 Наруто: Последний фильм Скачать торрент  

    Какой хороший аниме сериальчик и какая помояшная полнометражка.такое так как загадить можно.pb.wtf



      Дорогой пользователь! Огромная просьба, поблагодарите релизера, оцените раздачу и оставьте свои комментарий, если Вы скачали Наруто: Последний фильм через торрент бесплатно!
      Комментировать посты могут только пользователи прошедшие не сложную регистрацию
      Показать сообщения:    

      Наруто: Последний фильм через торрент
      Скачать бесплатно Наруто: Последний фильм
      Наруто: Последний фильм скачать торрент
      Наруто: Последний фильм смотреть онлайн
      Cкачать фильм Наруто: Последний фильм бесплатно
      Наруто: Последний фильм скачать торрент в хорошем качестве
      Наруто: Последний фильм смотреть онлайн бесплатно в хорошем качестве


      Вы не можете начинать темы
      Вы не можете отвечать на сообщения
      Вы не можете редактировать свои сообщения
      Вы не можете удалять свои сообщения
      Вы не можете голосовать в опросах
      Вы не можете прикреплять файлы к сообщениям
      Вы можете скачивать файлы