Ссылка на приватное зеркало нашего сайта всего за 1$. Внимание количество ограничено!!!

2 сезон

iTunes

1 сезон

1

iTunes

iTunes

iTunes

1 сезон

RePack

30

ИГРА 18+

pack

ВАЖНО

!!Акция!!

Alien_RageХит недели

RePack

MK11
pack

Забери бонус

RePack

jed

!!Акция!!

Alien_Rage

RePack

fifa19

RePack

Assassins Creed: Odyssey

RePack

NEED FOR SPEED™ PAYBACK

4 сезон

9 сезон

Бесстыжие 9 сезон

Все сериалы

все сериалы на PB.wtf

RePack

FAR CRY 5
  

Дрожь земли 5: Кровное родство / Tremors 5: Bloodlines (Дон Майкл Пол / Don Michael Paul) [2015, США, ужасы, фантастика, боевик, BDRip-AVC от sokol_ok] Dub [iTunes] pb.wtf

Дрожь земли 5: Кровное родство через торрент pb.wtf

Раздают: 1 [ 0 KB/s ]
Размер: 745 MB | Добавлен: 4 года 9 мес. назад | Торрент скачан:93 раза
Скачать  

29-12-2015 18:22 Дрожь земли 5: Кровное родство Скачать торрент  

Дрожь земли 5: Кровное родство
Tremors 5: Bloodlines




Страна: США
Жанр: ужасы, фантастика, боевик

Год выпуска: 2015
Продолжительность: 01:39:02

Перевод: Профессиональный (полное дублирование) [Лицензия iTunes]
Cубтитры: Русские (форсированные, полные), Английские (полные, SDH)
Оригинальная аудиодорожка: нет

Режиссер: Дон Майкл Пол / Don Michael Paul

В ролях: Майкл Гросс, Джейми Кеннеди, Эрнест Ндлову, Лоуренс Джофф, Зак Хендрикз, Натали Бекер, Эммануэль Кастис, Брэндон Оре, Дэниэл Дженкс, Rea Rangaka, Йен Робертс, Селло Себотсейн

Описание:
Гигантские черви-людоеды, известные как Грабоиды, терроризируют жителей Южной Африки. И самое страшное - это то, что Грабоиды со временем превратились в еще более опасных тварей...


Релиз:

Автор рипа: Stalker oK

Сэмпл

Качество видео: BDRip-AVC [Blu-ray Remux 1080p]
Формат видео: MKV
Видео кодек: AVC
Аудио кодек: AAC
Видео: 986 Кбит/сек, 736*414 (16:9), в 23,976 кадр/сек, AVC
Аудио: русский, 64,0 Кбит/сек, 48,0 КГц / 24,0 КГц, 2 канала(ов), AAC (HE-AAC / LC)
Навигация по главам: есть
Общее
Уникальный идентификатор : 237607291453133905138982729536298599316 (0xB2C17FF05D8514B593841BAEA5E4C394)
Полное имя : M:\Rips\Tremors 5 Bloodlines\Tremors.5.Bloodlines.2015.BDRip-AVC.Dub.745Mb.stalkerok.new-team.mkv
Формат : Matroska
Версия формата : Version 4 / Version 2
Размер файла : 745 Мбайт
Продолжительность : 1 ч. 39 м.
Общий поток : 1052 Кбит/сек
Название фильма : Tremors 5: Bloodlines (2015) (New-Team) (Rip by Stalker oK)
Дата кодирования : UTC 2015-12-29 17:00:49
Программа кодирования : mkvmerge v8.6.1 ('Flying') 64bit
Библиотека кодирования : libebml v1.3.3 + libmatroska v1.4.4

Видео
Идентификатор : 1
Формат : AVC
Формат/Информация : Advanced Video Codec
Профиль формата : High@L4.1
Параметр CABAC формата : Да
Параметр ReFrames формата : 16 кадров
Идентификатор кодека : V_MPEG4/ISO/AVC
Продолжительность : 1 ч. 39 м.
Битрейт : 986 Кбит/сек
Ширина : 736 пикселей
Высота : 414 пикселей
Соотношение сторон : 16:9
Режим частоты кадров : Постоянный
Частота кадров : 23,976 (24000/1001) кадра/сек
Цветовое пространство : YUV
Субдискретизация насыщенности : 4:2:0
Битовая глубина : 8 бит
Тип развёртки : Прогрессивная
Бит/(Пиксели*Кадры) : 0.135
Размер потока : 698 Мбайт (94%)
Заголовок : Tremors 5: Bloodlines (2015) (New-Team) (Rip by Stalker oK)
Библиотека кодирования : x264 core 146 r2538kMod 121396c
Настройки программы : cabac=1 / ref=16 / deblock=1:-3:-3 / analyse=0x3:0x133 / me=umh / subme=11 / psy=1 / fade_compensate=0.00 / psy_rd=1.00:0.12 / mixed_ref=1 / me_range=48 / chroma_me=1 / trellis=2 / 8x8dct=1 / cqm=0 / deadzone=21,11 / fast_pskip=0 / chroma_qp_offset=-3 / threads=12 / lookahead_threads=3 / sliced_threads=0 / nr=0 / decimate=0 / interlaced=0 / bluray_compat=0 / constrained_intra=0 / fgo=0 / bframes=16 / b_pyramid=2 / b_adapt=2 / b_bias=0 / direct=3 / weightb=1 / open_gop=0 / weightp=2 / keyint=240 / keyint_min=23 / scenecut=40 / intra_refresh=0 / rc_lookahead=40 / rc=2pass / mbtree=0 / bitrate=986 / ratetol=1.0 / qcomp=0.70 / qpmin=0 / qpmax=69 / qpstep=4 / cplxblur=20.0 / qblur=0.5 / vbv_maxrate=50000 / vbv_bufsize=62500 / nal_hrd=none / filler=0 / ip_ratio=1.40 / pb_ratio=1.30 / aq=3:1.00
Default : Да
Forced : Нет

Аудио
Идентификатор : 2
Формат : AAC
Формат/Информация : Advanced Audio Codec
Профиль формата : HE-AAC / LC
Идентификатор кодека : A_AAC
Продолжительность : 1 ч. 38 м.
Битрейт : 64,0 Кбит/сек
Каналы : 2 канала
Расположение каналов : Front: L R
Частота : 48,0 КГц / 24,0 КГц
Частота кадров : 23,438 кадра/сек (1024 spf)
Метод сжатия : С потерями
Задержка видео : 31 мс.
Размер потока : 45,3 Мбайт (6%)
Язык : Russian
Default : Да
Forced : Нет

Текст #1
Идентификатор : 3
Формат : UTF-8
Идентификатор кодека : S_TEXT/UTF8
Идентификатор кодека/Информация : UTF-8 Plain Text
Продолжительность : 1 ч. 21 м.
Битрейт : 0 бит/сек
Count of elements : 4
Размер потока : 175 байт (0%)
Заголовок : Forced
Язык : Russian
Default : Да
Forced : Нет

Текст #2
Идентификатор : 4
Формат : UTF-8
Идентификатор кодека : S_TEXT/UTF8
Идентификатор кодека/Информация : UTF-8 Plain Text
Продолжительность : 1 ч. 35 м.
Битрейт : 81 бит/сек
Count of elements : 1083
Размер потока : 57,2 Кбайт (0%)
Язык : Russian
Default : Нет
Forced : Нет

Текст #3
Идентификатор : 5
Формат : UTF-8
Идентификатор кодека : S_TEXT/UTF8
Идентификатор кодека/Информация : UTF-8 Plain Text
Продолжительность : 1 ч. 35 м.
Битрейт : 49 бит/сек
Count of elements : 1196
Размер потока : 34,3 Кбайт (0%)
Язык : English
Default : Нет
Forced : Нет

Текст #4
Идентификатор : 6
Формат : UTF-8
Идентификатор кодека : S_TEXT/UTF8
Идентификатор кодека/Информация : UTF-8 Plain Text
Продолжительность : 1 ч. 35 м.
Битрейт : 52 бит/сек
Count of elements : 1325
Размер потока : 36,4 Кбайт (0%)
Заголовок : SDH
Язык : English
Default : Нет
Forced : Нет

Меню
00:00:00.000 : en:00:00:00.000
00:06:52.537 : en:00:06:52.537
00:12:43.179 : en:00:12:43.179
00:17:19.247 : en:00:17:19.247
00:21:48.724 : en:00:21:48.724
00:26:34.426 : en:00:26:34.426
00:31:01.777 : en:00:31:01.777
00:36:38.905 : en:00:36:38.905
00:39:13.309 : en:00:39:13.309
00:46:36.919 : en:00:46:36.919
00:52:46.038 : en:00:52:46.038
00:58:57.534 : en:00:58:57.534
01:04:00.587 : en:01:04:00.587
01:08:57.967 : en:01:08:57.967
01:13:14.974 : en:01:13:14.974
01:16:14.445 : en:01:16:14.445
01:21:47.027 : en:01:21:47.027
01:27:58.857 : en:01:27:58.857
01:31:51.756 : en:01:31:51.756
01:34:11.729 : en:01:34:11.729
pb.wtf



Скачать Дрожь земли 5: Кровное родство через торрент http://i72.fastpic.ru/big/2015/0531/46/68ef8a2783b58e5344cc30bbd3f1b046.png Скачать фильм Дрожь земли 5: Кровное родство через торрент бесплантно в хорошем качестве Описание:Гигантские черви-людоеды, известные как Грабоиды, терроризируют жителей Южной Африки. И самое страшное - это то, что Грабоиды со ... 10 10 2
Info! Серебряная раздача, засчитывается только 50% скачанного.
Торрент: Зарегистрирован [2015-12-29 18:22] · скачан: 93 раз
Статус: √ проверено
Размер: 745 MB
Как cкачать? Как скачать Дрожь земли 5: Кровное родство через торрент | qTorrent

% Раздел Тема Автор DL S | L
Фильмы 2015 [DVDrip, WEB-DLRip, HDrip] [ 2.18 GB ] Дрожь земли 5: Кровное родство / Tremors 5: Bloodlines [2015 BDRip-AVC от sokol_ok] DUB sokol_ok Скачать
2 | 0
Фильмы 2015 [DVDrip, WEB-DLRip, HDrip] [ 1.45 GB ] Дрожь земли 5: Кровное родство / Tremors 5: Bloodlines [2015 BDRip-AVC от sokol_ok] DUB sokol_ok Скачать
2 | 0
Фильмы 2015 [DVDrip, WEB-DLRip, HDrip] [ 2.04 GB ] Дрожь земли 5: Кровное родство / Tremors 5: Bloodlines [2015 HDRip ""] coc900 Скачать
1 | 1
Фильмы (Blu-ray, BD-Remux, HDDVD) [ 37.89 GB ] Дрожь земли 5: Кровное родство / Tremors 5: Bloodlines [2015 Blu-ray] Russian Mafia Скачать
1 | 0
Фильмы 2015 [DVDrip, WEB-DLRip, HDrip] [ 751 MB ] Дрожь земли 5: Кровное родство / Tremors 5: Bloodlines [2015 HDRip by _Один_777] Dub () Один 777 Скачать
1 | 0
Фильмы 2015 [DVDrip, WEB-DLRip, HDrip] [ 1.46 GB ] Дрожь земли 5: Кровное родство / Tremors 5: Bloodlines [2015 BDRip] DUB Twi7ter Скачать
1 | 0
Фильмы 2015 [DVDrip, WEB-DLRip, HDrip] [ 1.37 GB ] Дрожь земли 5: Кровное родство / Tremors 5: Bloodlines [2015 HDRip] diletant Скачать
1 | 0

28-11-2019 20:33  

Отключить всю рекламу на сайте

    Дорогой пользователь! Огромная просьба, поблагодарите релизера, оцените раздачу и оставьте свои комментарий, если Вы скачали Дрожь земли 5: Кровное родство через торрент бесплатно! Внесите свою лепту в развитие PiratBit!
    Комментировать посты могут только пользователи прошедшие не сложную регистрацию
    Показать сообщения:    

    Дрожь земли 5: Кровное родство через торрент
    Скачать бесплатно Дрожь земли 5: Кровное родство
    Дрожь земли 5: Кровное родство скачать торрент
    Дрожь земли 5: Кровное родство смотреть онлайн
    Cкачать фильм Дрожь земли 5: Кровное родство бесплатно
    Дрожь земли 5: Кровное родство скачать торрент в хорошем качестве
    Дрожь земли 5: Кровное родство смотреть онлайн бесплатно в хорошем качестве


    Вы не можете начинать темы
    Вы не можете отвечать на сообщения
    Вы не можете редактировать свои сообщения
    Вы не можете удалять свои сообщения
    Вы не можете голосовать в опросах
    Вы не можете прикреплять файлы к сообщениям
    Вы можете скачивать файлы