Ссылка на приватное зеркало всего за 1$. Внимание количество ограничено!!!

OK

1+1

iTunes

мы

OK

1

WEB-DLRip

Джокер

Пифагор

Ведьмак / The Witcher сериал

iTunes

ПШазам

ОК

Оно 2

iTunes

30
pack

Вам бонус

ВАЖНО

!!Акция!!

Alien_RageХит недели

RePack

Resident Evil 21

ИГРА 18+

pack

RePack

jed

RePack

fifa19

RePack

Assassins Creed: Odyssey

RePack

NEED FOR SPEED™ PAYBACK

4 сезон

9 сезон

Бесстыжие 9 сезон

Все сериалы

все сериалы на PB.wtf

RePack

FAR CRY 5
  

Бригада: Наследник (Денис Алексеев) [2012, боевик, криминал, DVD9] R5 pb.wtf

Скачать  

30-12-2012 17:59 Бригада: Наследник Скачать торрент  


Бригада: Наследник
«Продолжение легендарной саги»
Страна: Россия
Студия: Independent Movie Company
Жанр: боевик, криминал
Год выпуска: 2012
Мировая премьера: 29 ноября 2012
Российская премьера: 29 ноября 2012
Дата выхода DVD: 20 декабря 2012
Дата выхода Blu-Ray: 20 декабря 2012
Продолжительность: 01:41:57
Перевод: Оригинал [Лицензия]
Cубтитры: украинские
Оригинальная аудиодорожка: русский
Режиссер: Денис Алексеев
В ролях: Иван Макаревич, Екатерина Гусева, Кирилл Нагиев, Владислав Демин, Александр Иншаков, Анна Попова, Валерий Золотухин, Игорь Жижикин, Юрий Чурсин, Наталия Гуслистая...
Описание: Фильм является идейным продолжением жизни героев телесериала «Бригада». Однако акцент смещен в историю сына Александра Белова — Ивана. Это Кино о современной России. О том, что у всех на устах: политике, коррупции, цинизме крупного бизнеса и спецслужб. О новом поколении, которое, узнав правду о нечистом бизнесе родителей, не идет по их стопам, а выбирает новый путь. Для них дороги понятия чести, любви и Родины. Герой, комфортно живший за границей, тем не менее, выбирает Россию (в отличие от сериала) и остается жить в ней, надеясь привнести эти идеалы в жизнь своих близких и страны в целом.
Бонусы: нет

Релиз группы:
Качество: DVD9 R5
Формат: DVD-Video
Видео кодек: MPEG2
Аудио кодек: AC3
Видео: PAL 16:9 (720x576(0.733)) MPEG Video, 25,000 кадр/сек, 7597 Кбит/сек
Аудио: Russian (Dolby AC3, 6 ch) 448 Кбит/сек, 48,0 КГц



Title: Brigada.Naslednik.2012.D.DVD9
Size: 6.11 Gb ( 6 408 456,00 KBytes ) - DVD-9
Enabled regions: 1, 2, 3, 4, 5, 6, 7, 8

VTS_01 :
Play Length: 00:00:19
Video: PAL 4:3 (720x576) VBR
Audio:
Not specified (Dolby AC3, 2 ch)

VTS_02 :
Play Length: 00:01:59
Video: PAL 16:9 (720x576) VBR, Auto Letterboxed
Audio:
Not specified (Dolby AC3, 2 ch)
Not specified (Dolby AC3, 2 ch)
Subtitles:
English

VTS_03 :
Play Length: 00:00:15
Video: PAL 16:9 (720x576) VBR, Auto Letterboxed
Audio:
Not specified (Dolby AC3, 2 ch)
Not specified (Dolby AC3, 2 ch)
Subtitles:
English

VTS_04 :
Play Length: 01:41:56
Video: PAL 16:9 (720x576) VBR, Auto Letterboxed
Audio:
Russian (Dolby AC3, 6 ch)
Subtitles:
Ukrainian

* Menus Information *

VIDEO_TS Menu
Video:
NTSC 4:3 (720x480) VBR
Auto Pan&Scan, Auto Letterboxed
English Language Unit :
Title Menu

VTS_01 Menu
Video:
PAL 16:9 (720x576) VBR
Auto Letterboxed
Audio:
Not specified (Dolby AC3, 2 ch)
English Language Unit :
Root Menu

VTS_02 Menu
Video:
PAL 4:3 (720x576) VBR
English Language Unit :
Root Menu

VTS_03 Menu
Video:
PAL 4:3 (720x576) VBR
English Language Unit :
Root Menu

VTS_04 Menu
Video:
PAL 4:3 (720x576) VBR
English Language Unit :
Root Menu
Общее
Полное имя : J:Новинки 2012Brigada.Naslednik.2012.D.DVD9VIDEO_TSVTS_04_1.VOB
Формат : MPEG-PS
Размер файла : 1024 Мбайт
Продолжительность : 17 м.
Режим общего битрейта : Переменный
Общий поток : 8209 Кбит/сек

Видео
Идентификатор : 224 (0xE0)
Формат : MPEG Video
Версия формата : Version 2
Профиль формата : Main@Main
Параметр BVOP формата : Да
Параметр матрицы формата : Выборочная
Параметр GOP формата : M=3, N=12
Продолжительность : 17 м.
Вид битрейта : Переменный
Битрейт : 7597 Кбит/сек
Максимальный битрейт : 9000 Кбит/сек
Ширина : 720 пикселей
Высота : 576 пикселей
Соотношение сторон : 16:9
Частота кадров : 25,000 кадров/сек
Стандарт вещания : PAL
Цветовое пространство : YUV
Субдискретизация насыщенности : 4:2:0
Битовая глубина : 8 бит
Тип развёртки : Прогрессивная
Метод сжатия : С потерями
Бит/(Пиксели*Кадры) : 0.733
Размер потока : 947 Мбайт (93%)
Основные цвета : BT.601 PAL
Характеристики трансфера : BT.470 System B, BT.470 System G
Коэффициенты матрицы : BT.601

Аудио
Идентификатор : 189 (0xBD)-128 (0x80)
Формат : AC-3
Формат/Информация : Audio Coding 3
Расширение режима : CM (complete main)
Параметр Endianness формата : Big
Режим смешивания : DVD-Video
Продолжительность : 17 м.
Вид битрейта : Постоянный
Битрейт : 448 Кбит/сек
Каналы : 6 каналов
Расположение каналов : Front: L C R, Side: L R, LFE
Частота : 48,0 КГц
Битовая глубина : 16 бит
Метод сжатия : С потерями
Размер потока : 55,8 Мбайт (5%)

Текст
Идентификатор : 189 (0xBD)-32 (0x20)
Формат : RLE
Формат/Информация : Run-length encoding
Режим смешивания : DVD-Video




pb.wtf



Скачать
Чтобы иметь возможность скачивать с Торрент Трекера, нужно Зарегистрироваться

Как скачивать  ·  Рейтинг и ограничения

28-11-2019 20:33  

Отключить всю рекламу на сайте

03-01-2016 14:39 Бригада: Наследник Скачать торрент  

не ту цифру нажал надо было 1, запарился 10 нажал, фильм лажа!!! не смог досмотреть, а то что смог вызывало рвотный рефлекс.pb.wtf



    Дорогой пользователь! Огромная просьба, поблагодарите релизера, оцените раздачу и оставьте свои комментарий, если Вы скачали Бригада: Наследник через торрент бесплатно! Внесите свою лепту в развитие PiratBit!
    Комментировать посты могут только пользователи прошедшие не сложную регистрацию
    Показать сообщения:    

    Бригада: Наследник через торрент
    Скачать бесплатно Бригада: Наследник
    Бригада: Наследник скачать торрент
    Бригада: Наследник смотреть онлайн
    Cкачать фильм Бригада: Наследник бесплатно
    Бригада: Наследник скачать торрент в хорошем качестве
    Бригада: Наследник смотреть онлайн бесплатно в хорошем качестве


    Вы не можете начинать темы
    Вы не можете отвечать на сообщения
    Вы не можете редактировать свои сообщения
    Вы не можете удалять свои сообщения
    Вы не можете голосовать в опросах
    Вы не можете прикреплять файлы к сообщениям
    Вы не можете скачивать файлы